Поиск

2019 Noe Tavelli & The Argonauts Collective (Vol. 78) {Double Moon DMCHR71359} [24-88.2]

2019 Noe Tavelli & The Argonauts Collective (Vol. 78) {Double Moon DMCHR71359} [24-88.2]
Дата записи диска:
5 июня - 6 июня 2017
Место записи:
La Buissonne, France
Дата издания диска:
3 мая 2019
Издатель (лейбл):
Номер по каталогу:
DMCHR71359
Носитель:
WEB
Формат:
PCM
Тип рипа:
tracks+.cue
Контейнер:
APE (*.ape)
Количество каналов:
2.0
Разрядность/ЧД:
24/88,2
Битрейт аудио:
lossless
Время звучания:
00:45:48
Наличие сканов:
web
Страна-производитель диска (релиза):
Germany
Релизёр (источник):
M0p94ok
Лог проверки качества
foobar2000 1.3.16 / Dynamic Range Meter 1.1.1
log date: 2019-05-03 12:03:49

--------------------------------------------------------------------------------
Analyzed: Noé Tavelli & The Argonauts Collective / Noé Tavelli & The Argonauts Collective (Jazz Thing Next Generation Vol. 78)
--------------------------------------------------------------------------------

DR         Peak         RMS     Duration Track
--------------------------------------------------------------------------------
DR9       -1.21 dB   -12.50 dB      4:39 01-Ruby's Blessing
DR8       -1.22 dB   -12.60 dB      7:21 02-Blanc comme neige
DR9       -1.21 dB   -12.42 dB      3:16 03-Interlude 1
DR9       -1.21 dB   -13.58 dB      3:56 04-Improvisation
DR9       -1.22 dB   -13.64 dB      3:48 05-Byway
DR9       -1.22 dB   -13.51 dB      2:30 06-Interlude 2
DR9       -1.22 dB   -13.09 dB      5:42 07-Rush
DR9       -1.22 dB   -14.45 dB      3:35 08-Interlude 3
DR8       -1.22 dB   -11.70 dB      5:28 09-Giasone
DR7       -1.22 dB   -11.36 dB      5:39 10-Moods
--------------------------------------------------------------------------------

Number of tracks:  10
Official DR value: DR9

Samplerate:        88200 Hz
Channels:          2
Bits per sample:   24
Bitrate:           2601 kbps
Codec:             FLAC
================================================================================
No seeders - write personal message to M0p94ok. Any questions - support@pro-jazz.com.
Нет сидеров - пишите в личку M0p94ok. Есть вопросы - support@pro-jazz.com
17:39
150
Нет комментариев. Ваш будет первым!