Поиск

1973 Donald Byrd - Street Lady (2020) {Blue Note, Dutton Vocalion} [DST64]

1973 Donald Byrd - Street Lady (2020) {Blue Note, Dutton Vocalion} [DST64]
Дата записи диска:
13 июня - 15 июня 1973
Место записи:
Sound Factory, Hollywood, CA
Издатель (лейбл):
Битрейт аудио:
lossless

Треклист:

1. Lansana's Priestess  07:39
2. Miss Kane  06:20
3. Sister Love  06:11
4. Street Lady  05:40
5. Witch Hunt  09:42
6. Woman Of The World  06:51

Доп. инфо:

Формат записи/Источник записи: [SACD-R][OF]
Наличие водяных знаков: Нет
Издание: Quadraphonic, Reissue, Remastered
Год издания/переиздания диска: 1973 / 2020
Продолжительность: 42:22 / 45:13
Наличие сканов в содержимом раздачи: Только обложка альбома
Контейнер: ISO (*.iso)
Тип рипа: image
Разрядность: 64(2,8 MHz/1 Bit)
Формат: DST64
Количество каналов: 2.0 & 4.0

Contains the complete original stereo and quadraphonic mix of the album BN-LA140-F (1973) Stereo / BN-DA140-H Quadraphonic.

Лог проверки качества
foobar2000 1.6.2 / Dynamic Range Meter 1.1.1
log date: 2020-11-03 14:06:05

--------------------------------------------------------------------------------
Analyzed: Donald Byrd / Street Lady
--------------------------------------------------------------------------------

DR         Peak         RMS     Duration Track
--------------------------------------------------------------------------------
DR21      -7.32 dB   -25.49 dB      7:43 01-Lansanas Priestess
DR7       -7.26 dB   -23.08 dB      6:21 02-Miss Kane
DR9       -7.31 dB   -25.09 dB      6:08 03-Sister Love
DR9       -6.60 dB   -23.77 dB      8:26 04-Street Lady
DR9       -6.01 dB   -23.84 dB      9:39 05-Witch Hunt
DR9       -6.83 dB   -25.19 dB      6:57 06-Woman of the World
--------------------------------------------------------------------------------

Number of tracks:  6
Official DR value: DR10

Samplerate:        2822400 Hz / PCM Samplerate: 176400 Hz
Channels:          6
Bits per sample:   1
Bitrate:           16934 kbps
Codec:             DST64
================================================================================

--------------------------------------------------------------------------------
Analyzed: Donald Byrd / Street Lady
--------------------------------------------------------------------------------

DR         Peak         RMS     Duration Track
--------------------------------------------------------------------------------
DR12      -6.75 dB   -21.36 dB      7:43 01-Lansanas Priestess
DR10      -7.26 dB   -19.80 dB      6:21 02-Miss Kane
DR12      -7.39 dB   -21.41 dB      6:09 03-Sister Love
DR13      -7.92 dB   -22.76 dB      5:38 04-Street Lady
DR11      -6.64 dB   -20.86 dB      9:40 05-Witch Hunt
DR13      -7.49 dB   -22.93 dB      6:51 06-Woman of the World
--------------------------------------------------------------------------------

Number of tracks:  6
Official DR value: DR12

Samplerate:        2822400 Hz / PCM Samplerate: 176400 Hz
Channels:          2
Bits per sample:   1
Bitrate:           5645 kbps
Codec:             DST64
================================================================================
Приватный:
Нет (DHT включён)
Размер:
2.02 Гб (2,172,830,777 байт) » файлов: 3
Участники:
1 раздают, 1 качают (2 участников всего)
Внешние участники:
11 раздают, 4 качают (15 участников всего) [ Обновить ]
No seeders - write personal message to M0p94ok. Нет сидеров - пишите в личку M0p94ok.
00:10
122
00:11