Поиск

2019 Or Bareket - 33 {Yellowbird YEB-7792} [24-96]

2019 Or Bareket - 33 {Yellowbird YEB-7792} [24-96]
Стили:
Дата записи диска:
25 ноября - 26 ноября 2018
Место записи:
Bunker Studios, Brooklyn, NY, USA
Номер по каталогу:
YEB-7792
Носитель:
WEB
Формат:
PCM
Тип рипа:
tracks+.cue
Контейнер:
APE (*.ape)
Количество каналов:
2.0
Разрядность/ЧД:
24/96
Битрейт аудио:
lossless
Время звучания:
00:42:36
Наличие сканов:
web
Страна-производитель диска (релиза):
USA
Релизёр (источник):
M0p94ok
Лог проверки качества
foobar2000 1.3.16 / Dynamic Range Meter 1.1.1
log date: 2021-02-15 12:10:56

--------------------------------------------------------------------------------
Analyzed: Or Bareket / 33
--------------------------------------------------------------------------------

DR         Peak         RMS     Duration Track
--------------------------------------------------------------------------------
DR11      -0.50 dB   -13.86 dB      5:39 01-Still Searching
DR11      -0.50 dB   -14.01 dB      4:05 02-Feb 1st
DR12      -0.50 dB   -15.28 dB      6:30 03-Reginia
DR11      -0.50 dB   -14.61 dB      3:26 04-Zamba de Argamonte
DR11      -0.50 dB   -14.19 dB      3:14 05-Carmo Capricho
DR11      -0.50 dB   -14.31 dB      4:05 06-W Schubert and Troy
DR11      -0.50 dB   -14.22 dB      4:26 07-Vienna
DR13      -0.50 dB   -15.74 dB      2:50 08-Yarkan
DR11      -0.50 dB   -15.66 dB      5:22 09-Thirty Three
DR12      -1.61 dB   -16.35 dB      3:04 10-Tzafonah
--------------------------------------------------------------------------------

Number of tracks:  10
Official DR value: DR11

Samplerate:        96000 Hz
Channels:          2
Bits per sample:   24
Bitrate:           2403 kbps
Codec:             FLAC
================================================================================
No seeders - write personal message to M0p94ok. Any questions - support@pro-jazz.com.
Нет сидеров - пишите в личку M0p94ok. Есть вопросы - support@pro-jazz.com
23:44
126
Нет комментариев. Ваш будет первым!