Поиск

2015 Waxwing - A Bowl Of Sixty Taxidermists {Songlines} [24-96]

2015 Waxwing - A Bowl Of Sixty Taxidermists {Songlines} [24-96]
Стили:
Место записи:
Demitone Studio, Vancouver, BC
Дата издания диска:
13 июля 2015
Номер по каталогу:
SGL 1611-2
Носитель:
WEB
Формат:
PCM
Тип рипа:
tracks+.cue
Контейнер:
APE (*.ape)
Количество каналов:
2.0
Разрядность/ЧД:
24/96
Битрейт аудио:
lossless
Время звучания:
00:51:41
Наличие сканов:
да
Наличие водяных знаков:
нет
Релизёр (источник):
M0p94ok

Треклист:

01. A Bowl of Sixty Taxidermists  03:10
02. For Ross  06:02
03. Ponderosa  03:51
04. For Claude  06:50
05. Snowblind  02:53
06. Interlude #1  01:18
07. Dune  06:41
08. Reigning Cats And Dogs  01:03
09. Clementine  04:26
10. Thicket  03:16
11. A Line Through  04:23
12. Cinder  04:09
13. The Owl Of Crowston  03:14
14. Gone  04:25

Лог проверки качества
foobar2000 1.3.16 / Dynamic Range Meter 1.1.1
log date: 2019-05-05 22:41:04

--------------------------------------------------------------------------------
Analyzed: Waxwing / A Bowl Of Sixty Taxidermists
--------------------------------------------------------------------------------

DR         Peak         RMS     Duration Track
--------------------------------------------------------------------------------
DR11      -0.30 dB   -13.98 dB      3:11 01-A Bowl of Sixty Taxidermists
DR12      -0.30 dB   -15.84 dB      6:02 02-For Ross
DR12      -0.30 dB   -15.10 dB      3:52 03-Ponderosa
DR12      -0.30 dB   -14.94 dB      6:50 04-For Claude
DR13      -0.30 dB   -19.03 dB      2:54 05-Snowblind
DR10      -0.30 dB   -14.25 dB      1:18 06-Interlude #1
DR12      -0.30 dB   -15.80 dB      6:41 07-Dune
DR13      -0.30 dB   -15.36 dB      1:03 08-Reigning Cats And Dogs
DR11      -3.06 dB   -18.56 dB      4:27 09-Clementine
DR11      -0.30 dB   -13.36 dB      3:17 10-Thicket
DR12      -0.30 dB   -16.73 dB      4:23 11-A Line Through
DR13      -0.30 dB   -17.18 dB      4:10 12-Cinder
DR12      -0.30 dB   -15.26 dB      3:14 13-The Owl Of Crowston
DR10      -0.30 dB   -17.60 dB      4:25 14-Gone
--------------------------------------------------------------------------------

Number of tracks:  14
Official DR value: DR12

Samplerate:        96000 Hz
Channels:          2
Bits per sample:   24
Bitrate:           2575 kbps
Codec:             FLAC
================================================================================
Приватный:
Нет (DHT включён)
Размер:
1.04 Гб (1,112,361,488 байт) » файлов: 17
Участники:
1 раздают, 0 качают (1 участников всего)
Внешние участники:
--- [ Обновить ]
For power users only: no seeders - write to support@pro-jazz.com. Для power user: нет сидеров - пишите на support@pro-jazz.com.
20:00
20
Нет комментариев. Ваш будет первым!