Поиск

2019 Camilla Voigt - Wide Open {Nilento} [24-96]

2019 Camilla Voigt - Wide Open {Nilento} [24-96]
Стили:
Дата издания диска:
3 мая 2019
Носитель:
WEB
Формат:
PCM
Тип рипа:
tracks+.cue
Контейнер:
APE (*.ape)
Количество каналов:
2.0
Разрядность/ЧД:
24/96
Битрейт аудио:
lossless
Время звучания:
00:75:25
Наличие сканов:
web
Наличие водяных знаков:
нет
Релизёр (источник):
M0p94ok

Треклист:

1. Wide Open feat. Lars Nilsson  03:43
2. Björkstammar feat. Lars Nilsson  02:54
3. Choral feat. Lars Nilsson  00:50

Лог проверки качества
foobar2000 1.6.2 / Dynamic Range Meter 1.1.1
log date: 2021-02-22 21:32:42

--------------------------------------------------------------------------------
Analyzed: Lars Nilsson / Wide Open
--------------------------------------------------------------------------------

DR         Peak         RMS     Duration Track
--------------------------------------------------------------------------------
DR9       -2.10 dB   -13.57 dB      3:43 01-Wide Open
DR9       -2.59 dB   -16.13 dB      2:53 02-Björkstammar
DR9       -3.12 dB   -17.26 dB      0:51 03-Choral
--------------------------------------------------------------------------------

Number of tracks:  3
Official DR value: DR9

Samplerate:        96000 Hz
Channels:          2
Bits per sample:   24
Bitrate:           2121 kbps
Codec:             FLAC
================================================================================
Приватный:
Нет (DHT включён)
Размер:
138.97 Мб (145,716,778 байт) » файлов: 5
Участники:
2 раздают, 0 качают (2 участников всего)
Внешние участники:
--- [ Обновить ]
No seeders - write personal message to M0p94ok. Any questions - support@pro-jazz.com.
Нет сидеров - пишите в личку M0p94ok. Есть вопросы - support@pro-jazz.com
23:03
130
Нет комментариев. Ваш будет первым!