Поиск

2002 Benoit Delbecq, Francois Houle - Dice Thrown {Songlines SGL SA1538-2} [24-88.2]

2002 Benoit Delbecq, Francois Houle - Dice Thrown {Songlines SGL SA1538-2} [24-88.2]
Дата записи диска:
3 мая - 4 мая 2001
Место записи:
La Muse en Circuit, Paris, France; Studio John Cage, Alfortville, France
Дата издания диска:
3 сентября 2002
Номер по каталогу:
SGL SA1538-2
Носитель:
WEB
Формат:
PCM
Тип рипа:
tracks+.cue
Контейнер:
APE (*.ape)
Количество каналов:
2.0
Разрядность/ЧД:
24/88,2
Битрейт аудио:
lossless
Время звучания:
00:53:14
Наличие сканов:
да
Страна-производитель диска (релиза):
Canada
Релизёр (источник):
M0p94ok
Доп. инфо:

Кларнетист Франсуа Уль (Канада) и пианист Бенуа Дельбек (Франция) хорошо известны своими тенденциями модерн / фри-джаз. Здесь они выбирают камерную программу, основанную на органическом подходе, часто отмеченную неземными размышлениями. Они преследуют тихие атмосферные звуковые ландшафты и мрачные, священные тематические набеги через обилие деликатно выполненных обменов. Подготовленные фортепианные манипуляции Дельбека предполагают подразумеваемую ритмическую силу. Однако в таких пьесах, как "Shaw", он устанавливает остинато из трех аккордов для призрачных и в целом сладких линий Хоула. Они используют пространство как средство экспрессионизма среди множества тонко исполненных звуковых гобеленов. Странная красота пронизывает все это дело из-за мешанины загадочно сформулированных отрывков. Таким образом, дуэт вдохновляет на воображаемое пребывание, поскольку они эффективно передают последовательность вызывающих настроение виньеток и очаровательно построенных абстрактов.

Лог проверки качества
foobar2000 1.3.16 / Dynamic Range Meter 1.1.1
log date: 2019-05-10 16:12:22

--------------------------------------------------------------------------------
Analyzed: Benoit Delbecq / Dice Thrown
--------------------------------------------------------------------------------

DR         Peak         RMS     Duration Track
--------------------------------------------------------------------------------
DR10      -3.23 dB   -18.05 dB      5:26 01-Shaw
DR14      -3.03 dB   -22.37 dB      5:45 02-Oliveira et la Sybille
DR12      -4.02 dB   -21.88 dB      7:45 03-Ezerville
DR12      -2.91 dB   -20.97 dB      5:30 04-Bogolandes
DR12      -1.35 dB   -21.18 dB      3:24 05-C-Strang
DR14      -2.63 dB   -22.53 dB      8:18 06-Apnésie
DR12      -1.76 dB   -20.14 dB      5:00 07-Dice Talk
DR11      -4.97 dB   -21.90 dB      1:27 08-Raccourci
DR14      -4.64 dB   -25.00 dB      5:04 09-Trois pour les Gil
DR11      -0.01 dB   -15.17 dB      5:40 10-Dés jetés
--------------------------------------------------------------------------------

Number of tracks:  10
Official DR value: DR12

Samplerate:        88200 Hz
Channels:          2
Bits per sample:   24
Bitrate:           2698 kbps
Codec:             FLAC
================================================================================
No seeders - write personal message to M0p94ok. Any questions - support@pro-jazz.com.
Нет сидеров - пишите в личку M0p94ok. Есть вопросы - support@pro-jazz.com
11:07
145
Нет комментариев. Ваш будет первым!