Поиск

2020 Aquiles Navarro & Tcheser Holmes - Heritage of the Invisible II {International Anthem IARC0035} [24-44.1]

2020 Aquiles Navarro & Tcheser Holmes - Heritage of the Invisible II {International Anthem IARC0035} [24-44.1]
Дата записи диска:
30 октября - 2 ноября 2019
Место записи:
S1 Studios, Brooklyn, New York City, NY, USA
Дата издания диска:
23 октября 2020
Номер по каталогу:
IARC0035
Носитель:
WEB
Формат:
PCM
Тип рипа:
tracks+.cue
Контейнер:
APE (*.ape)
Количество каналов:
2.0
Разрядность/ЧД:
24/44,1
Битрейт аудио:
lossless
Время звучания:
00:39:58
Наличие сканов:
web
Наличие водяных знаков:
нет
Релизёр (источник):
Flac-Music

Треклист:

01. Initial Meditation 04:44
02. plantains 05:10
03. Pueblo 02:02 video
04. A Night in NY 03:38
05. M.O.N.K (Most Only Never Knew) 04:23
06. interlude⇅interludio 00:41
07. NAVARROHOLMES 08:00
08. $$$ /// billete 04:16
09. Father 02:49
10. remix by madam data 04:11

Voices from track 2 & 10 are taken from interview/performance done for Live Constructions Series show, recorded April 23rd, 2017, at WKCR, New York, NY.

Voice of Carlos Garnett on track 8 is taken from an interview done by Aquiles Navarro at Carlos Garnett’s home in Panamá City, Panama, 2013.

Доп. инфо:

Телепатический афро-карибский импровизационный дуэт трубы и ударных Aquiles Navarro и Tcheser Holmes - давних друзей, соавторов и неутомимых участников творческих музыкальных сцен Нью-Йорка.

"Heritage of the Invisible II" следует за тем, как Наварро и Холмс стали известными участниками фри-джазового коллектива Irreversible Entanglements. В марте 2020 года в «Нации» писатель Маркус Дж. Мур сказал, что «бесстрашная музыка Irreversible Entanglements бросает вызов полиции, американской политике, капитализму и расизму». Революционный дух, который движет Irreversible Entanglements, не в меньшей степени присутствует в дуэте Наварро и Холмса, хотя их дуэт находит, что они гораздо более искренне и радостно принимают свои латиноамериканские и афро-карибские основы.

Лог проверки качества
foobar2000 1.4.5 / Замер динамического диапазона (DR) 1.1.1
Дата отчёта:  2020-12-27 00:19:45

--------------------------------------------------------------------------------
Анализ:   Aquiles Navarro and Tcheser Holmes / Heritage of the Invisible II
--------------------------------------------------------------------------------

DR         Пики         RMS           Продолжительность трека
--------------------------------------------------------------------------------
DR8       -1.01 дБ   -10.92 дБ      4:45 1-Initial Meditation
DR9       -1.01 дБ   -11.78 дБ      5:10 2-plantains
DR9       -1.01 дБ   -11.38 дБ      2:02 3-Pueblo
DR8       -1.01 дБ   -11.01 дБ      3:39 4-A Night in NY
DR9       -1.02 дБ   -12.56 дБ      4:24 5-M.O.N.K (Most Only Never Knew)
DR11      -1.03 дБ   -14.24 дБ      0:41 6-interlude||interludio
DR8       -1.01 дБ   -10.58 дБ      8:00 7-NAVARROHOLMES
DR9       -1.01 дБ   -12.01 дБ      4:16 8-$$$ /// billete
DR8       -1.01 дБ   -11.14 дБ      2:50 9-Father
DR9       -1.01 дБ   -11.22 дБ      4:11 10-remix by madam data
--------------------------------------------------------------------------------

Количество треков: 10
Реальные значения DR: DR9

Частота:   44100 Гц
Каналов:   2
Разрядность:   24
Битрейт:   1575 кбит/с
Кодек:   FLAC
================================================================================
Приватный:
Нет (DHT включён)
Размер:
462.66 Мб (485,136,417 байт) » файлов: 12
Участники:
2 раздают, 0 качают (2 участников всего)
Внешние участники:
3 раздают, 1 качают (4 участников всего) [ Обновить ]
No seeders - write personal message to M0p94ok. Нет сидеров - пишите в личку M0p94ok.
13:52
103
Нет комментариев. Ваш будет первым!