Поиск

2019 Yoann Loustalot - Slow (The Smart Sounds of Bruit Chic) {Bruit Chic, Etic System} [24-96]

2019 Yoann Loustalot - Slow (The Smart Sounds of Bruit Chic) {Bruit Chic, Etic System} [24-96]
Стили:
Дата издания диска:
3 мая 2019
Носитель:
WEB
Формат:
PCM
Тип рипа:
tracks+.cue
Контейнер:
APE (*.ape)
Количество каналов:
2.0
Разрядность/ЧД:
24/96
Битрейт аудио:
lossless
Время звучания:
00:51:43
Наличие сканов:
web
Страна-производитель диска (релиза):
USA
Релизёр (источник):
M0p94ok
Доп. инфо:

Этот новый квартет, рожденный в результате встречи Йоанна ЛОУСТАЛО и Жюльена ТУЭРИ, активных и талантливых музыкантов нового поколения французского джаза, также подчеркивает очаровательных Эрика СУРМЕНИАНА и Лорана ПАРИЖА. История дружбы, прежде всего, но не только, четыре музыканта, присутствующие здесь, убежденные и вдохновленные инструменталисты.

Слушая первые ноты, понимаешь, что они должны были встретиться. Музыка, написанная их пером, необыкновенной красоты, неподвластна времени, искренна. Мы нашли время, чтобы отдаться чарующему климату, который колеблется между импрессионистским джазом и камерной музыкой. Здесь правильность слов преобладает над исполнением, и уникальная песня блестяще раскрывается над завораживающими звуковыми ландшафтами.

Каждое произведение похоже на отдельную вселенную, историю, в которой музыканты восхваляют прекрасное и медленное, как возвращение к основам. В то время, когда все ускоряется, становится очевидным МЕДЛЕННОЕ, чрезвычайная ситуация ...

Лог проверки качества
foobar2000 1.3.16 / Dynamic Range Meter 1.1.1
log date: 2019-05-09 00:19:25

--------------------------------------------------------------------------------
Analyzed: Yoann Loustalot / Slow (The Smart Sounds of Bruit Chic)
--------------------------------------------------------------------------------

DR         Peak         RMS     Duration Track
--------------------------------------------------------------------------------
DR12       0.00 dB   -16.36 dB      5:40 01-Table rase
DR10      -0.40 dB   -15.09 dB      5:15 02-Fjords
DR13       0.00 dB   -17.70 dB      4:48 03-Sonnig und dabei kalt
DR14       0.00 dB   -18.23 dB      5:38 04-Vers l'ouest
DR12      -0.41 dB   -17.63 dB      2:34 05-Sur le tard
DR13      -2.90 dB   -19.70 dB      5:03 06-Winter
DR14      -1.07 dB   -20.97 dB      7:53 07-Vers le nord
DR12       0.00 dB   -16.02 dB      6:09 08-Metal Contact
DR11       0.00 dB   -16.40 dB      4:20 09-Ama Lur Gaixoa
DR13       0.00 dB   -17.67 dB      4:25 10-Saoul les nuages
--------------------------------------------------------------------------------

Number of tracks:  10
Official DR value: DR12

Samplerate:        96000 Hz
Channels:          2
Bits per sample:   24
Bitrate:           2606 kbps
Codec:             FLAC
================================================================================
No seeders - write personal message to M0p94ok. Any questions - support@pro-jazz.com.
Нет сидеров - пишите в личку M0p94ok. Есть вопросы - support@pro-jazz.com
15:49
149
Нет комментариев. Ваш будет первым!