Поиск

2002 Chris Lomheim Trio - The Bridge {Artegra, LLC} [DST64]

2002 Chris Lomheim Trio - The Bridge {Artegra, LLC} [DST64]
Стили:
Битрейт аудио:
lossless
Треклист:

01. Everything I Love
02. The Bridge
03. It Could Happen
04. Estate
05. Marse
06. Blame It On My Youth
07. Woody 'N' You
08. In Passing
09. The Last Flower

Доп. инфо:

Формат записи/Источник записи: [SACD-R][OF]
Наличие водяных знаков: Нет
Год издания/переиздания диска: 2002
Издатель (лейбл): Artegra, LLC
Продолжительность: 62:38
Наличие сканов в содержимом раздачи: Да (сканы)
Источник (релизер): SA-CD.net
Контейнер: ISO (*.iso)
Тип рипа: image
Разрядность: 64 (2,8 MHz/1 Bit)
Формат: DST64
Количество каналов: 5.0, 2.0

Лог проверки качества
foobar2000 1.4 / Dynamic Range Meter 1.1.1
log date: 2018-08-25 14:20:46

--------------------------------------------------------------------------------
Analyzed: Chris Lomheim Trio / The Bridge
--------------------------------------------------------------------------------

DR         Peak         RMS     Duration Track
--------------------------------------------------------------------------------
DR16      -1.81 dB   -26.75 dB      6:55 01-Everything I Love
DR15      -6.35 dB   -30.43 dB      8:13 02-The Bridge
DR16      -3.33 dB   -27.91 dB      6:45 03-It Could Happen
DR15      -4.60 dB   -27.72 dB      8:51 04-Estate
DR17      -1.79 dB   -26.06 dB      3:36 05-Marse
DR15      -6.36 dB   -30.49 dB      7:45 06-Blame It On My Mouth
DR16      -1.94 dB   -25.17 dB      6:22 07-Woody
DR15      -6.07 dB   -29.30 dB      8:47 08-In Passing
DR15      -8.27 dB   -30.91 dB      5:22 09-Last Flower
--------------------------------------------------------------------------------

Number of tracks:  9
Official DR value: DR16

Samplerate:        2822400 Hz / PCM Samplerate: 176400 Hz
Channels:          5
Bits per sample:   1
Bitrate:           14112 kbps
Codec:             DST64
================================================================================

--------------------------------------------------------------------------------
Analyzed: Chris Lomheim Trio / The Bridge
--------------------------------------------------------------------------------

DR         Peak         RMS     Duration Track
--------------------------------------------------------------------------------
DR16      -1.89 dB   -22.66 dB      6:55 01-Everything I Love
DR16      -5.91 dB   -26.37 dB      8:13 02-The Bridge
DR16      -1.68 dB   -23.18 dB      6:45 03-It Could Happen
DR17      -2.27 dB   -23.37 dB      8:51 04-Estate
DR17      -1.91 dB   -23.41 dB      3:36 05-Marse
DR17      -4.79 dB   -26.46 dB      7:45 06-Blame It On My Mouth
DR15      -1.72 dB   -20.92 dB      6:22 07-Woody
DR16      -3.90 dB   -24.98 dB      8:47 08-In Passing
DR15      -6.45 dB   -26.84 dB      5:22 09-Last Flower
--------------------------------------------------------------------------------

Number of tracks:  9
Official DR value: DR16

Samplerate:        2822400 Hz / PCM Samplerate: 176400 Hz
Channels:          2
Bits per sample:   1
Bitrate:           5645 kbps
Codec:             DST64
================================================================================
Приватный:
Нет (DHT включён)
Размер:
3.56 Гб (3,822,407,368 байт) » файлов: 10
Участники:
2 раздают, 0 качают (2 участников всего)
Внешние участники:
5 раздают, 1 качают (6 участников всего) [ Обновить ]
No seeders - write personal message to M0p94ok. Нет сидеров - пишите в личку M0p94ok.
16:53
141
Нет комментариев. Ваш будет первым!