Поиск

2019 Alexandra Shakina - Mood Indigo {Venus VHGD-350} [DSD64]

2019 Alexandra Shakina - Mood Indigo {Venus VHGD-350} [DSD64]
Стили:
Дата записи диска:
21 января и 22 января 2019
Место записи:
Riverside Studio in Torino on January 21 and 22, 2019
Дата издания диска:
20 ноября 2019
Издатель (лейбл):
Номер по каталогу:
VHGD-350
Битрейт аудио:
lossless
Треклист:

01. Estate
02. I Could Have Told You
03. Isn’t It Romantic ?
04. Let’s Face The Music And Dance
05. Love You Madly
06. Mood Indigo
07. Only Trust Your Heart
08. A Sleepin Bee
09. Take Love Easy
10. You Are The Top
11. Comes Love
12. I’m A Fool To Want You
13. I Thought About You

Доп. инфо:

Формат записи/Источник записи: [SACD-R][OF]
Наличие водяных знаков: Нет
Год издания/переиздания диска: 2019
Продолжительность: 01:01:37
Наличие сканов в содержимом раздачи: Только обложка альбома
Контейнер: ISO (*.iso)
Тип рипа: image
Разрядность: 64(2,8 MHz/1 Bit)
Формат: DSD
Количество каналов: 2.0

Доп. информация: venusrecords
Источник (релизер): jazzy pic

Лог проверки качества
foobar2000 1.6.2 / Замер динамического диапазона (DR) 1.1.1
Дата отчёта:  2020-12-27 19:29:02

--------------------------------------------------------------------------------
Анализ:   Alexandra Shakina / MOOD INDIGO
--------------------------------------------------------------------------------

DR         Пики         RMS           Продолжительность трека
--------------------------------------------------------------------------------
DR12      -3.30 дБ   -18.08 дБ      5:45 01-ESTATE
DR12      -4.61 дБ   -19.31 дБ      5:37 02-I COULD HAVE TOLD YOU
DR11      -4.53 дБ   -18.80 дБ      6:29 03-ISN'T IT ROMANTIC?
DR10      -2.85 дБ   -14.68 дБ      4:11 04-LET'S FACE THE MUSIC AND DANCE
DR10      -3.68 дБ   -15.21 дБ      3:14 05-LOVE YOU MADLY
DR11      -3.54 дБ   -16.73 дБ      5:24 06-MOOD INDIGO
DR11      -3.43 дБ   -15.80 дБ      3:42 07-ONLY TRUST YOUR HEART
DR11      -3.03 дБ   -16.02 дБ      5:07 08-A SLEEPIN BEE
DR10      -3.96 дБ   -16.09 дБ      4:01 09-TAKE LOVE EASY
DR10      -3.70 дБ   -14.57 дБ      3:02 10-YOU ARE THE TOP
DR12      -3.72 дБ   -18.44 дБ      4:04 11-COMES LOVE
DR12      -4.84 дБ   -21.10 дБ      5:40 12-I'M A FOOL TO WANT YOU
DR11      -4.53 дБ   -17.79 дБ      5:23 13-I THOUGHT ABOUT YOU
--------------------------------------------------------------------------------

Количество треков: 13
Реальные значения DR: DR11

Частота:  2822400 Гц / Частота PCM: 352800 Гц
Каналов:  2
Разрядность:   1
Битрейт:  5645 кбит/с
Кодек:   DSD64
================================================================================
Приватный:
Нет (DHT включён)
Размер:
2.48 Гб (2,664,129,970 байт) » файлов: 4
Участники:
0 раздают, 0 качают (0 участников всего)
Внешние участники:
14 раздают, 4 качают (18 участников всего) [ Обновить ]
No seeders - write personal message to M0p94ok. Any questions - support@pro-jazz.com.
Нет сидеров - пишите в личку M0p94ok. Есть вопросы - support@pro-jazz.com
00:22
135
Нет комментариев. Ваш будет первым!