Поиск

2003 Benoit Delbecq - Nu-Turn {Songlines} [24-88.2]

2003 Benoit Delbecq - Nu-Turn {Songlines} [24-88.2]
Дата записи диска:
11 декабря - 12 декабря 2001
Место записи:
Recital Hall, University of British Columbia, Vancouver, Canada
Дата издания диска:
3 июня 2003
Носитель:
CD
Формат:
PCM
Тип рипа:
tracks
Контейнер:
FLAC (*.flac)
Количество каналов:
2.0
Разрядность/ЧД:
24/88,2
Битрейт аудио:
lossless
Время звучания:
01:03:34
Наличие сканов:
буклет pdf
Страна-производитель диска (релиза):
Canada
Релизёр (источник):
M0p94ok
Лог проверки качества
foobar2000 1.3.16 / Dynamic Range Meter 1.1.1
log date: 2019-05-09 02:33:54

--------------------------------------------------------------------------------
Analyzed: Benoit Delbecq / Nu-turn
--------------------------------------------------------------------------------

DR         Peak         RMS     Duration Track
--------------------------------------------------------------------------------
DR14      -2.27 dB   -20.71 dB      7:13 01-In Rainbows
DR14       0.00 dB   -19.52 dB      8:17 02-In Lilac
DR17      -6.21 dB   -26.84 dB      6:44 03-On ne dit pas regarder la lune, on dit "luner"
DR14      -2.11 dB   -21.07 dB      7:50 04-On Laterite
DR13      -2.99 dB   -21.79 dB      5:59 05-Into Neon
DR14      -2.87 dB   -21.61 dB      5:38 06-On Embers
DR12       0.00 dB   -18.28 dB      6:11 07-Nu-Turn (étude de nu)
DR14       0.00 dB   -20.48 dB      4:41 08-In Funfairs
DR14      -5.80 dB   -23.77 dB     11:03 09-Into White
--------------------------------------------------------------------------------

Number of tracks:  9
Official DR value: DR14

Samplerate:        88200 Hz
Channels:          2
Bits per sample:   24
Bitrate:           2492 kbps
Codec:             FLAC
================================================================================
No seeders - write personal message to M0p94ok. Any questions - support@pro-jazz.com.
Нет сидеров - пишите в личку M0p94ok. Есть вопросы - support@pro-jazz.com
12:55
148
Нет комментариев. Ваш будет первым!