Поиск

2009 Alexis Cole - Someday My Prince Will Come (2016) {Venus VHGD-128} [DSD64]

2009 Alexis Cole - Someday My Prince Will Come (2016) {Venus VHGD-128} [DSD64]
Стили:
Издатель (лейбл):
Номер по каталогу:
VHGD-128
Битрейт аудио:
lossless
Доп. инфо:

Формат записи/Источник записи: [SACD-R][OF]
Наличие водяных знаков: Нет
Год издания/переиздания диска: 2009/2016
Продолжительность: 00:52:38
Наличие сканов в содержимом раздачи: Только обложка альбома
Контейнер: ISO (*.iso)
Тип рипа: image
Разрядность: 64 (2,8 MHz/1 Bit)
Формат: DSD
Количество каналов: 2.0

Доп. информация: venusrecords
Источник (релизер): jazzy pic

Лог проверки качества
foobar2000 1.6.2 / Замер динамического диапазона (DR) 1.1.1
Дата отчёта:  2020-12-27 21:15:08

--------------------------------------------------------------------------------
Анализ:   ALEXIS COLE / Someday My Prince Will Come
--------------------------------------------------------------------------------

DR         Пики         RMS           Продолжительность трека
--------------------------------------------------------------------------------
DR9       -2.85 дБ   -13.26 дБ      4:11 01-For Now For Always
DR9       -2.60 дБ   -13.40 дБ      2:37 02-Home Is Where The Heart Is
DR9       -2.58 дБ   -13.70 дБ      3:57 03-If I Never Knew You
DR9       -2.65 дБ   -13.82 дБ      3:47 04-La La Ru
DR9       -2.63 дБ   -13.68 дБ      4:44 05-Let Me Be Good To You
DR9       -2.44 дБ   -13.94 дБ      5:14 06-Love
DR9       -2.30 дБ   -12.90 дБ      3:00 07-Once Upon A Dream
DR9       -2.22 дБ   -13.30 дБ      5:32 08-Remember When
DR9       -2.17 дБ   -14.42 дБ      4:26 09-So This Is Love
DR9       -2.37 дБ   -13.65 дБ      5:00 10-Someday My Prince Will Come
DR9       -2.61 дБ   -13.59 дБ      5:33 11-The Second Star To The Right
DR8       -3.22 дБ   -14.18 дБ      4:38 12-When You Wish Upon A Star
--------------------------------------------------------------------------------

Количество треков: 12
Реальные значения DR: DR9

Частота:  2822400 Гц / Частота PCM: 352800 Гц
Каналов:  2
Разрядность:   1
Битрейт:  5645 кбит/с
Кодек:   DSD64
================================================================================
No seeders - write personal message to M0p94ok. Any questions - support@pro-jazz.com.
Нет сидеров - пишите в личку M0p94ok. Есть вопросы - support@pro-jazz.com
17:00
168
Нет комментариев. Ваш будет первым!