Поиск

1959 Benny Golson - Benny Golson & The Philadelphians (2021) {Music Manager} [24-48]

1959 Benny Golson - Benny Golson & The Philadelphians (2021) {Music Manager} [24-48]
Стили:
Дата записи диска:
17 ноября - 12 декабря 1958
Место записи:
Nola's Penthouse, New York
Издатель (лейбл):
Носитель:
WEB
Формат:
PCM
Тип рипа:
tracks
Контейнер:
FLAC (*.flac)
Количество каналов:
2.0
Разрядность/ЧД:
24/48
Битрейт аудио:
lossless
Время звучания:
00:35:46
Наличие сканов:
только обложка

01 - You're Not the Kind 04:20
02 - Blues On My Mind 07:30
03 - Stablemates 05:48
04 - Thursday's Theme 07:39
05 - Afternoon in Paris 06:53
06 - Calgary 03:36

Состав:
Лог проверки качества
foobar2000 1.6.2 / Dynamic Range Meter 1.1.1
log date: 2021-09-22 20:04:57
--------------------------------------------------------------------------------
Analyzed: Benny Golson & The Philadelphians / Benny Golson & The Philadelphians
--------------------------------------------------------------------------------
DR         Peak         RMS     Duration Track
--------------------------------------------------------------------------------
DR14      -0.03 dB   -17.35 dB      4:20 01-You're Not the Kind
DR15      -0.08 dB   -17.55 dB      7:31 02-Blues On My Mind
DR14      -0.06 dB   -16.91 dB      5:48 03-Stablemates
DR15      -0.07 dB   -20.28 dB      7:39 04-Thursday's Theme
DR14       0.00 dB   -17.80 dB      6:54 05-Afternoon in Paris
DR14      -0.08 dB   -16.80 dB      3:37 06-Calgary
--------------------------------------------------------------------------------
Number of tracks:  6
Official DR value: DR14
Samplerate:        48000 Hz
Channels:          2
Bits per sample:   24
Bitrate:           1229 kbps
Codec:             FLAC
================================================================================
Скачивание доступно после регистрации!!
Приватный:
Нет (DHT включён)
Размер:
308.58 Мб (323,565,391 байт) » файлов: 10
Участники:
0 раздают, 0 качают (0 участников всего)
Внешние участники:
3 раздают, 1 качают (4 участников всего) [ Обновить ]
12:27
403
Нет комментариев. Ваш будет первым!