Поиск

1959 (1994) Teddy Charles - A Salute to Hamp vol.1 {Bethlehem 20-40082}

1959 (1994) Teddy Charles - A Salute to Hamp vol.1 {Bethlehem 20-40082}
Страна-производитель диска (релиза):
USA
Дата записи диска:
10 февраля 1959
Дата издания диска:
1959
Дата переиздания диска:
1994
Издатель (лейбл):
Номер по каталогу:
20-40082
Носитель:
CD
Битрейт аудио:
lossless
Аудиокодек:
FLAC (*.flac)
Тип рипа:
tracks+.cue
Время звучания:
49:13
Наличие сканов:
  • да
Релизёр (источник):
Musicgate

Состав:

1, 2, 7, 6 — Art Farmer (tp) Bob Brookmeyer (vtb, p) Zoot Sims (ts) Teddy Charles (vib) Addison Farmer (b) Ed Thigpen (d)
4 — Teddy Charles (vib) Addison Farmer (b) Ed Thigpen (d)
3, 5, 9, 8 — Teddy Charles (vib) Hank Jones (p) Addison Farmer (b) Charlie Smith (d)

Записано в Hollywood at BellTone studios

Издания:
Bethlehem LP 12": BCP 6032 — Salute To Hamp (1959)
Fresh Sound (Sp.) LP 12": FSR-151 — Salute To Hamp
Fresh Sound (Sp.) LP 12": FSR-2004 — Salute To Hamp (1986)
Bethlehem CD: 20-40082 — Salute To Hamp — The Vibraphone Players Of Bethlehem, Vol. 1 (1994)
Rhino CD: R2 79848 — Salute To Hamp (2000)
Toshiba/EMI (Jpn.) CD: TOCJ 62057 — Salute To Hamp (2000)

1) Airmail Special 5:09
2) Midnight Sun 2:41
3) On The Sunny Side Of The Street 2:00
4) He's Gone Again 2:20
5) Stomping At The Savoy 3:18
6) Flying Home 3:15
7) Stardust 3:44
8) Blue Ham 4:00
9) Moon Glow 2:53
10) On The Sunny Side Of The Street (Alt. Take) 2:43
11) Stomping At The Savoy (Alt. Take 14) 3:16
12) Moon Glow (Alt. Take 4) 2:42
13) Dlue Ham (Alt. Take 5) 4:14
14) Jake The Dell Doy (Alt. Take 2) 2:56
15) Jake The Dell Boy (Alt. Take 3) 3:06

Лог создания рипа
Exact Audio Copy V0.99 prebeta 5 from 4. May 2009

EAC extraction logfile from 10. May 2011, 20:43

Teddy Charles / A Salute to Hamp (A Vibraphone Players Of Bethlehem, vol.1)

Used drive  : HL-DT-STDVD-RAM GH22NP20   Adapter: 0  ID: 0

Read mode               : Secure
Utilize accurate stream : Yes
Defeat audio cache      : Yes
Make use of C2 pointers : No

Read offset correction                      : 102
Overread into Lead-In and Lead-Out          : No
Fill up missing offset samples with silence : Yes
Delete leading and trailing silent blocks   : No
Null samples used in CRC calculations       : Yes
Used interface                              : Native Win32 interface for Win NT & 2000
Gap handling                                : Appended to previous track

Used output format              : User Defined Encoder
Selected bitrate                : 1024 kBit/s
Quality                         : High
Add ID3 tag                     : No
Command line compressor         : C:\Program Files\Exact Audio Copy\Flac\flac.exe
Additional command line options : -8 -V -T "ARTIST=%a" -T "TITLE=%t" -T "ALBUM=%g" -T "DATE=%y" -T "TRACKNUMBER=%n" -T "GENRE=%m" -T "COMMENT=EAC FLAC -8" %s

TOC of the extracted CD

     Track |   Start  |  Length  | Start sector | End sector
    ---------------------------------------------------------
        1  |  0:00.00 |  5:11.69 |         0    |    23393
        2  |  5:11.69 |  2:43.46 |     23394    |    35664
        3  |  7:55.40 |  2:26.45 |     35665    |    46659
        4  | 10:22.10 |  2:21.67 |     46660    |    57301
        5  | 12:44.02 |  3:21.53 |     57302    |    72429
        6  | 16:05.55 |  3:17.60 |     72430    |    87264
        7  | 19:23.40 |  3:45.45 |     87265    |   104184
        8  | 23:09.10 |  4:03.05 |    104185    |   122414
        9  | 27:12.15 |  2:55.17 |    122415    |   135556
       10  | 30:07.32 |  2:47.25 |    135557    |   148106
       11  | 32:54.57 |  3:17.15 |    148107    |   162896
       12  | 36:11.72 |  2:44.18 |    162897    |   175214
       13  | 38:56.15 |  4:15.27 |    175215    |   194366
       14  | 43:11.42 |  2:56.15 |    194367    |   207581
       15  | 46:07.57 |  3:05.03 |    207582    |   221459

Track  1

     Filename D:\music\Musicgate's rips\Teddy Charles - A Salute to Hamp (A Vibraphone Players Of Bethlehem, vol.1) - 1994 (Bethlehem 20-40082)\01 - Air Mail Special.wav

     Pre-gap length  0:00:02.00

     Peak level 98.7 %
     Track quality 100.0 %
     Test CRC E113CA38
     Copy CRC E113CA38
     Accurately ripped (confidence 2)  [C6B0AD39]
     Copy OK

Track  2

     Filename D:\music\Musicgate's rips\Teddy Charles - A Salute to Hamp (A Vibraphone Players Of Bethlehem, vol.1) - 1994 (Bethlehem 20-40082)\02 - Midnight Sun.wav

     Pre-gap length  0:00:02.00

     Peak level 96.6 %
     Track quality 100.0 %
     Test CRC 484F86F5
     Copy CRC 484F86F5
     Accurately ripped (confidence 2)  [A053C2B9]
     Copy OK

Track  3

     Filename D:\music\Musicgate's rips\Teddy Charles - A Salute to Hamp (A Vibraphone Players Of Bethlehem, vol.1) - 1994 (Bethlehem 20-40082)\03 - On the Sunny Side of the Street.wav

     Pre-gap length  0:00:02.40

     Peak level 96.0 %
     Track quality 100.0 %
     Test CRC 7C79C21F
     Copy CRC 7C79C21F
     Accurately ripped (confidence 2)  [F4CA84BC]
     Copy OK

Track  4

     Filename D:\music\Musicgate's rips\Teddy Charles - A Salute to Hamp (A Vibraphone Players Of Bethlehem, vol.1) - 1994 (Bethlehem 20-40082)\04 - He's Gone Again.wav

     Pre-gap length  0:00:02.66

     Peak level 94.1 %
     Track quality 100.0 %
     Test CRC F0B8A2A9
     Copy CRC F0B8A2A9
     Accurately ripped (confidence 2)  [E568C738]
     Copy OK

Track  5

     Filename D:\music\Musicgate's rips\Teddy Charles - A Salute to Hamp (A Vibraphone Players Of Bethlehem, vol.1) - 1994 (Bethlehem 20-40082)\05 - Stompin' at the Savoy.wav

     Peak level 99.8 %
     Track quality 100.0 %
     Test CRC E8107959
     Copy CRC E8107959
     Accurately ripped (confidence 2)  [ED5317E2]
     Copy OK

Track  6

     Filename D:\music\Musicgate's rips\Teddy Charles - A Salute to Hamp (A Vibraphone Players Of Bethlehem, vol.1) - 1994 (Bethlehem 20-40082)\06 - Flying Home.wav

     Pre-gap length  0:00:02.43

     Peak level 97.0 %
     Track quality 100.0 %
     Test CRC 50622C01
     Copy CRC 50622C01
     Accurately ripped (confidence 2)  [C06D1DF8]
     Copy OK

Track  7

     Filename D:\music\Musicgate's rips\Teddy Charles - A Salute to Hamp (A Vibraphone Players Of Bethlehem, vol.1) - 1994 (Bethlehem 20-40082)\07 - Stardust.wav

     Pre-gap length  0:00:02.50

     Peak level 91.7 %
     Track quality 100.0 %
     Test CRC 80C7558C
     Copy CRC 80C7558C
     Accurately ripped (confidence 2)  [CF6EB222]
     Copy OK

Track  8

     Filename D:\music\Musicgate's rips\Teddy Charles - A Salute to Hamp (A Vibraphone Players Of Bethlehem, vol.1) - 1994 (Bethlehem 20-40082)\08 - Blue Hamp.wav

     Pre-gap length  0:00:01.50

     Peak level 100.0 %
     Track quality 99.9 %
     Test CRC 0F7099E1
     Copy CRC 0F7099E1
     Accurately ripped (confidence 2)  [097F007A]
     Copy OK

Track  9

     Filename D:\music\Musicgate's rips\Teddy Charles - A Salute to Hamp (A Vibraphone Players Of Bethlehem, vol.1) - 1994 (Bethlehem 20-40082)\09 - Moonglow.wav

     Pre-gap length  0:00:02.40

     Peak level 97.1 %
     Track quality 100.0 %
     Test CRC 2E3BA01D
     Copy CRC 2E3BA01D
     Accurately ripped (confidence 2)  [95FA397A]
     Copy OK

Track 10

     Filename D:\music\Musicgate's rips\Teddy Charles - A Salute to Hamp (A Vibraphone Players Of Bethlehem, vol.1) - 1994 (Bethlehem 20-40082)\10 - On the Sunny Side of the Street [Alternate Take].wav

     Pre-gap length  0:00:01.45

     Peak level 97.7 %
     Track quality 100.0 %
     Test CRC 9CF2FC41
     Copy CRC 9CF2FC41
     Accurately ripped (confidence 2)  [08455840]
     Copy OK

Track 11

     Filename D:\music\Musicgate's rips\Teddy Charles - A Salute to Hamp (A Vibraphone Players Of Bethlehem, vol.1) - 1994 (Bethlehem 20-40082)\11 - Stompin' at the Savoy [Alternate Take 14].wav

     Pre-gap length  0:00:04.70

     Peak level 99.0 %
     Track quality 100.0 %
     Test CRC B32DC23C
     Copy CRC B32DC23C
     Accurately ripped (confidence 2)  [84932A56]
     Copy OK

Track 12

     Filename D:\music\Musicgate's rips\Teddy Charles - A Salute to Hamp (A Vibraphone Players Of Bethlehem, vol.1) - 1994 (Bethlehem 20-40082)\12 - Moonglow [Alternate Take 4].wav

     Peak level 74.8 %
     Track quality 100.0 %
     Test CRC A2B2CF6C
     Copy CRC A2B2CF6C
     Accurately ripped (confidence 2)  [EB65FC92]
     Copy OK

Track 13

     Filename D:\music\Musicgate's rips\Teddy Charles - A Salute to Hamp (A Vibraphone Players Of Bethlehem, vol.1) - 1994 (Bethlehem 20-40082)\13 - Blue Hamp [Alternate Take 5].wav

     Pre-gap length  0:00:02.45

     Peak level 100.0 %
     Track quality 99.9 %
     Test CRC 2F2422FF
     Copy CRC 2F2422FF
     Track not present in AccurateRip database
     Copy OK

Track 14

     Filename D:\music\Musicgate's rips\Teddy Charles - A Salute to Hamp (A Vibraphone Players Of Bethlehem, vol.1) - 1994 (Bethlehem 20-40082)\14 - Jack the Bellboy [Bonus Track] [x].wav

     Peak level 100.0 %
     Track quality 100.0 %
     Test CRC A3ADD95C
     Copy CRC A3ADD95C
     Accurately ripped (confidence 2)  [D6109E94]
     Copy OK

Track 15

     Filename D:\music\Musicgate's rips\Teddy Charles - A Salute to Hamp (A Vibraphone Players Of Bethlehem, vol.1) - 1994 (Bethlehem 20-40082)\15 - Jack the Bellboy [Bonus Track][x][Alternate Take 3].wav

     Peak level 97.9 %
     Track quality 100.0 %
     Test CRC 30E6D95F
     Copy CRC 30E6D95F
     Accurately ripped (confidence 2)  [A974B7B7]
     Copy OK

14 track(s) accurately ripped
 1 track(s) not present in the AccurateRip database

Some tracks could not be verified as accurate

No errors occurred

End of status report
Содержание индексной карты (.CUE)
REM GENRE Jazz
REM DATE 1994
REM DISCID EA0B880F
REM COMMENT "ExactAudioCopy v0.99pb5"
PERFORMER "Teddy Charles"
TITLE "A Salute to Hamp (A Vibraphone Players Of Bethlehem, vol.1)"
FILE "01 - Air Mail Special.wav" WAVE
  TRACK 01 AUDIO
    TITLE "Air Mail Special"
    PERFORMER "Teddy Charles"
    INDEX 01 00:00:00
  TRACK 02 AUDIO
    TITLE "Midnight Sun"
    PERFORMER "Teddy Charles"
    INDEX 00 05:09:69
FILE "02 - Midnight Sun.wav" WAVE
    INDEX 01 00:00:00
  TRACK 03 AUDIO
    TITLE "On the Sunny Side of the Street"
    PERFORMER "Teddy Charles"
    INDEX 00 02:41:06
FILE "03 - On the Sunny Side of the Street.wav" WAVE
    INDEX 01 00:00:00
  TRACK 04 AUDIO
    TITLE "He's Gone Again"
    PERFORMER "Teddy Charles"
    INDEX 00 02:23:54
FILE "04 - He's Gone Again.wav" WAVE
    INDEX 01 00:00:00
FILE "05 - Stompin' at the Savoy.wav" WAVE
  TRACK 05 AUDIO
    TITLE "Stompin' at the Savoy"
    PERFORMER "Teddy Charles"
    INDEX 01 00:00:00
  TRACK 06 AUDIO
    TITLE "Flying Home"
    PERFORMER "Teddy Charles"
    INDEX 00 03:19:10
FILE "06 - Flying Home.wav" WAVE
    INDEX 01 00:00:00
  TRACK 07 AUDIO
    TITLE "Stardust"
    PERFORMER "Teddy Charles"
    INDEX 00 03:15:10
FILE "07 - Stardust.wav" WAVE
    INDEX 01 00:00:00
  TRACK 08 AUDIO
    TITLE "Blue Hamp"
    PERFORMER "Teddy Charles"
    INDEX 00 03:43:70
FILE "08 - Blue Hamp.wav" WAVE
    INDEX 01 00:00:00
  TRACK 09 AUDIO
    TITLE "Moonglow"
    PERFORMER "Teddy Charles"
    INDEX 00 04:00:40
FILE "09 - Moonglow.wav" WAVE
    INDEX 01 00:00:00
  TRACK 10 AUDIO
    TITLE "On the Sunny Side of the Street [Alternate Take]"
    PERFORMER "Teddy Charles"
    INDEX 00 02:53:47
FILE "10 - On the Sunny Side of the Street [Alternate Take].wav" WAVE
    INDEX 01 00:00:00
  TRACK 11 AUDIO
    TITLE "Stompin' at the Savoy [Alternate Take 14]"
    PERFORMER "Teddy Charles"
    INDEX 00 02:42:30
FILE "11 - Stompin' at the Savoy [Alternate Take 14].wav" WAVE
    INDEX 01 00:00:00
FILE "12 - Moonglow [Alternate Take 4].wav" WAVE
  TRACK 12 AUDIO
    TITLE "Moonglow [Alternate Take 4]"
    PERFORMER "Teddy Charles"
    INDEX 01 00:00:00
  TRACK 13 AUDIO
    TITLE "Blue Hamp [Alternate Take 5]"
    PERFORMER "Teddy Charles"
    INDEX 00 02:41:48
FILE "13 - Blue Hamp [Alternate Take 5].wav" WAVE
    INDEX 01 00:00:00
FILE "14 - Jack the Bellboy [Bonus Track] [x].wav" WAVE
  TRACK 14 AUDIO
    TITLE "Jack the Bellboy [Bonus Track] 
"
PERFORMER "Teddy Charles"
INDEX 01 00:00:00
FILE "15 - Jack the Bellboy [Bonus Track][x][Alternate Take 3].wav" WAVE
TRACK 15 AUDIO
TITLE "Jack the Bellboy [Bonus Track]
[Alternate Take 3]"
PERFORMER "Teddy Charles"
INDEX 01 00:00:00
Приватный:
Нет (DHT включён)
Размер:
282.92 Мб (296,664,641 байт) » файлов: 27
Участники:
0 раздают, 0 качают (0 участников всего)
Внешние участники:
3 раздают, 1 качают (4 участников всего) [ Обновить ]
16:36
83
RSS
Нет комментариев. Ваш будет первым!