Поиск

1984 The Great Jazz Trio - Monk's Moods {Denon 38C38-7323}

1984 The Great Jazz Trio - Monk's Moods {Denon 38C38-7323}
Стили:
Дата записи диска:
сентябрь-октябрь 1984
Дата издания диска:
1984
Издатель (лейбл):
Номер по каталогу:
38C38-7323
Носитель:
CD
Битрейт аудио:
lossless
Аудиокодек:
FLAC (*.flac)
Тип рипа:
tracks+.cue
Время звучания:
44:52
Наличие сканов:
  • да
Релизёр (источник):
Bezz
Треклист:

1. Round about midnight * 6:12
2. Blue Monk 5:52
3. Bemsha Swing 4:59
4. Misterioso 5:33
5. I mean you * 5:59
6. Ruby my dear 5:01
7. Monk's dream 4:15
8. Jackie-ing 4:15
9. Monk's mood + 2:41

Состав:
  • Jimmy Cobb    Drums
  • Eddie Gomez    Bass
  • Terumasa Hino    Cornet *
  • Kiyoski Itoh    Producer
  • Hank Jones    Arranger, Piano +
Лог создания рипа
Exact Audio Copy V0.99 prebeta 5 from 4. May 2009

EAC extraction logfile from 20. May 2010, 19:03

Telonious Monk / The Great Jazz Trio - Monks' Moods

Used drive  : HL-DT-STDVDRAM GH20NS15   Adapter: 4  ID: 0

Read mode               : Secure
Utilize accurate stream : Yes
Defeat audio cache      : Yes
Make use of C2 pointers : No

Read offset correction                      : 667
Overread into Lead-In and Lead-Out          : No
Fill up missing offset samples with silence : Yes
Delete leading and trailing silent blocks   : No
Null samples used in CRC calculations       : Yes
Used interface                              : Native Win32 interface for Win NT & 2000
Gap handling                                : Appended to previous track

Used output format              : User Defined Encoder
Selected bitrate                : 320 kBit/s
Quality                         : High
Add ID3 tag                     : No
Command line compressor         : C:\Program Files\Exact Audio Copy\FLAC\FLAC.EXE
Additional command line options : -6 -V -T "ARTIST=%a" -T "TITLE=%t" -T "ALBUM=%g" -T "DATE=%y" -T "TRACKNUMBER=%n" -T "GENRE=%m" -T "COMMENT=%e" %s -o %d

TOC of the extracted CD

     Track |   Start  |  Length  | Start sector | End sector
    ---------------------------------------------------------
        1  |  0:00.00 |  6:12.55 |         0    |    27954
        2  |  6:12.55 |  5:52.62 |     27955    |    54416
        3  | 12:05.42 |  4:59.48 |     54417    |    76889
        4  | 17:05.15 |  5:33.45 |     76890    |   101909
        5  | 22:38.60 |  5:59.40 |    101910    |   128874
        6  | 28:38.25 |  5:01.27 |    128875    |   151476
        7  | 33:39.52 |  4:15.50 |    151477    |   170651
        8  | 37:55.27 |  4:15.13 |    170652    |   189789
        9  | 42:10.40 |  2:41.12 |    189790    |   201876

Track  1

     Filename E:\The great jazz trio - Monks'moods\01 - 'Round about midnight .wav

     Pre-gap length  0:00:02.00

     Peak level 93.1 %
     Track quality 100.0 %
     Test CRC A68E3A62
     Copy CRC A68E3A62
     Accurately ripped (confidence 2)  [CD6B0F11]
     Copy OK

Track  2

     Filename E:\The great jazz trio - Monks'moods\02 - Blue monk .wav

     Pre-gap length  0:00:00.47

     Peak level 42.8 %
     Track quality 100.0 %
     Test CRC 9E3A900B
     Copy CRC 9E3A900B
     Accurately ripped (confidence 2)  [165A4E96]
     Copy OK

Track  3

     Filename E:\The great jazz trio - Monks'moods\03 - Bemsha swing .wav

     Pre-gap length  0:00:00.34

     Peak level 63.3 %
     Track quality 100.0 %
     Test CRC 2572A319
     Copy CRC 2572A319
     Accurately ripped (confidence 2)  [0E57F5E9]
     Copy OK

Track  4

     Filename E:\The great jazz trio - Monks'moods\04 - Misterioso .wav

     Pre-gap length  0:00:00.24

     Peak level 65.8 %
     Track quality 100.0 %
     Test CRC 16896A43
     Copy CRC 16896A43
     Accurately ripped (confidence 2)  [052C9692]
     Copy OK

Track  5

     Filename E:\The great jazz trio - Monks'moods\05 - I mean you .wav

     Pre-gap length  0:00:00.15

     Peak level 91.2 %
     Track quality 100.0 %
     Test CRC DC16BD21
     Copy CRC DC16BD21
     Accurately ripped (confidence 2)  [78E44D5D]
     Copy OK

Track  6

     Filename E:\The great jazz trio - Monks'moods\06 - Ruby my dear .wav

     Pre-gap length  0:00:00.14

     Peak level 59.3 %
     Track quality 100.0 %
     Test CRC 4848866D
     Copy CRC 4848866D
     Accurately ripped (confidence 2)  [098D2D24]
     Copy OK

Track  7

     Filename E:\The great jazz trio - Monks'moods\07 - Monk's dream .wav

     Peak level 69.1 %
     Track quality 99.9 %
     Test CRC DB91C3FF
     Copy CRC DB91C3FF
     Accurately ripped (confidence 2)  [23D7E119]
     Copy OK

Track  8

     Filename E:\The great jazz trio - Monks'moods\08 - Jackie-ing .wav

     Pre-gap length  0:00:00.24

     Peak level 62.3 %
     Track quality 100.0 %
     Test CRC 335B309B
     Copy CRC 335B309B
     Accurately ripped (confidence 2)  [AE8A4570]
     Copy OK

Track  9

     Filename E:\The great jazz trio - Monks'moods\09 - Monk's mood .wav

     Peak level 29.8 %
     Track quality 100.0 %
     Test CRC 22783B6A
     Copy CRC 22783B6A
     Accurately ripped (confidence 2)  [A71CDEDC]
     Copy OK

All tracks accurately ripped

No errors occurred

End of status report
Содержание индексной карты (.CUE)
REM GENRE Jazz
REM DATE 1984
REM DISCID 610A8309
REM COMMENT "ExactAudioCopy v0.99pb5"
PERFORMER "Telonious Monk"
TITLE "The Great Jazz Trio - Monks' Moods"
FILE "01 - 'Round about midnight .wav" WAVE
  TRACK 01 AUDIO
    TITLE "'Round about midnight"
    PERFORMER "Telonious Monk"
    INDEX 01 00:00:00
  TRACK 02 AUDIO
    TITLE "Blue monk"
    PERFORMER "Telonious Monk"
    INDEX 00 06:12:08
FILE "02 - Blue monk .wav" WAVE
    INDEX 01 00:00:00
  TRACK 03 AUDIO
    TITLE "Bemsha swing"
    PERFORMER "Telonious Monk"
    INDEX 00 05:52:28
FILE "03 - Bemsha swing .wav" WAVE
    INDEX 01 00:00:00
  TRACK 04 AUDIO
    TITLE "Misterioso"
    PERFORMER "Telonious Monk"
    INDEX 00 04:59:24
FILE "04 - Misterioso .wav" WAVE
    INDEX 01 00:00:00
  TRACK 05 AUDIO
    TITLE "I mean you"
    PERFORMER "Telonious Monk"
    INDEX 00 05:33:30
FILE "05 - I mean you .wav" WAVE
    INDEX 01 00:00:00
  TRACK 06 AUDIO
    TITLE "Ruby my dear"
    PERFORMER "Telonious Monk"
    INDEX 00 05:59:26
FILE "06 - Ruby my dear .wav" WAVE
    INDEX 01 00:00:00
FILE "07 - Monk's dream .wav" WAVE
  TRACK 07 AUDIO
    TITLE "Monk's dream"
    PERFORMER "Telonious Monk"
    INDEX 01 00:00:00
  TRACK 08 AUDIO
    TITLE "Jackie-ing"
    PERFORMER "Telonious Monk"
    INDEX 00 04:15:26
FILE "08 - Jackie-ing .wav" WAVE
    INDEX 01 00:00:00
FILE "09 - Monk's mood .wav" WAVE
  TRACK 09 AUDIO
    TITLE "Monk's mood"
    PERFORMER "Telonious Monk"
    INDEX 01 00:00:00
Приватный:
Нет (DHT включён)
Размер:
237.96 Мб (249,517,250 байт) » файлов: 19
Участники:
0 раздают, 0 качают (0 участников всего)
Внешние участники:
3 раздают, 1 качают (4 участников всего) [ Обновить ]
17:09
45
RSS
Нет комментариев. Ваш будет первым!