Поиск

1962-1966 (1989) Vince Guaraldi - Greatest Hits {Fantasy FCD-7706-2}

1962-1966 (1989) Vince Guaraldi - Greatest Hits {Fantasy FCD-7706-2}
Дата записи диска:
1962-1966
Дата издания диска:
11 июля 1989
Издатель (лейбл):
Номер по каталогу:
FCD-7706-2
Носитель:
CD
Битрейт аудио:
lossless
Аудиокодек:
FLAC (*.flac)
Тип рипа:
tracks+.cue
Время звучания:
58:01
Наличие сканов:
  • нет
Релизёр (источник):
MuZiiC

Треклист:

01. Cast Your Fate To The Wind [3:06]
02. Ginza [5:28]
03. Mr. Lucky [2:56]
04. Treat Street [2:59]
05. I'm A Loser [2:38]
06. Days Of Wine And Roses [5:25]
07. Star Song [4:48]
08. Outra Vez [2:56]
09. Samba De Orpheus [5:38]
10. Manha De Carnaval [5:47]
11. Zelao [4:34]
12. Oh, Good Grief [2:22]
13. Linus And Lucy [3:07]
14. Christmas Time Is Here [6:03]

Лог создания рипа
Exact Audio Copy V0.99 prebeta 5 from 4. May 2009

EAC extraction logfile from 25. December 2010, 22:28

Vince Guaraldi / Greatest Hits

Used drive  : PIONEER DVD-RW  DVR-115D   Adapter: 0  ID: 0

Read mode               : Secure
Utilize accurate stream : Yes
Defeat audio cache      : Yes
Make use of C2 pointers : No

Read offset correction                      : 48
Overread into Lead-In and Lead-Out          : No
Fill up missing offset samples with silence : Yes
Delete leading and trailing silent blocks   : No
Null samples used in CRC calculations       : Yes
Used interface                              : Native Win32 interface for Win NT & 2000
Gap handling                                : Appended to previous track

Used output format              : User Defined Encoder
Selected bitrate                : 128 kBit/s
Quality                         : High
Add ID3 tag                     : No
Command line compressor         : C:\Program Files\Exact Audio Copy\Flac\flac.exe
Additional command line options : -V -8 -T "artist=%a" -T "title=%t" -T "album=%g" -T "date=%y" -T "tracknumber=%n" -T "genre=%m" %s

TOC of the extracted CD

     Track |   Start  |  Length  | Start sector | End sector
    ---------------------------------------------------------
        1  |  0:00.00 |  3:08.27 |         0    |    14126
        2  |  3:08.27 |  5:28.33 |     14127    |    38759
        3  |  8:36.60 |  2:54.50 |     38760    |    51859
        4  | 11:31.35 |  3:03.17 |     51860    |    65601
        5  | 14:34.52 |  2:38.63 |     65602    |    77514
        6  | 17:13.40 |  5:25.42 |     77515    |   101931
        7  | 22:39.07 |  4:48.58 |    101932    |   123589
        8  | 27:27.65 |  2:53.45 |    123590    |   136609
        9  | 30:21.35 |  5:40.60 |    136610    |   162169
       10  | 36:02.20 |  5:50.07 |    162170    |   188426
       11  | 41:52.27 |  4:32.00 |    188427    |   208826
       12  | 46:24.27 |  2:24.68 |    208827    |   219694
       13  | 48:49.20 |  3:06.47 |    219695    |   233691
       14  | 51:55.67 |  6:03.60 |    233692    |   260976

Track  1

     Filename C:\EAC\Vince Guaraldi\Greatest Hits\01 - Cast Your Fate To The Wind.wav

     Pre-gap length  0:00:02.00

     Peak level 63.1 %
     Track quality 100.0 %
     Test CRC 2138984C
     Copy CRC 2138984C
     Accurately ripped (confidence 14)  [4E0EB51F]
     Copy OK

Track  2

     Filename C:\EAC\Vince Guaraldi\Greatest Hits\02 - Ginza.wav

     Pre-gap length  0:00:02.22

     Peak level 57.8 %
     Track quality 100.0 %
     Test CRC CEC8BA4E
     Copy CRC CEC8BA4E
     Accurately ripped (confidence 15)  [24BC1A1A]
     Copy OK

Track  3

     Filename C:\EAC\Vince Guaraldi\Greatest Hits\03 - Mr. Lucky.wav

     Pre-gap length  0:00:02.50

     Peak level 35.1 %
     Track quality 99.9 %
     Test CRC 392D134F
     Copy CRC 392D134F
     Accurately ripped (confidence 15)  [89CD9036]
     Copy OK

Track  4

     Filename C:\EAC\Vince Guaraldi\Greatest Hits\04 - Treat Street.wav

     Pre-gap length  0:00:02.70

     Peak level 59.9 %
     Track quality 100.0 %
     Test CRC B5895A15
     Copy CRC B5895A15
     Accurately ripped (confidence 15)  [0FB44EF3]
     Copy OK

Track  5

     Filename C:\EAC\Vince Guaraldi\Greatest Hits\05 - I'm A Loser.wav

     Pre-gap length  0:00:03.62

     Peak level 53.5 %
     Track quality 100.0 %
     Test CRC 24ED4F51
     Copy CRC 24ED4F51
     Accurately ripped (confidence 15)  [022DAF98]
     Copy OK

Track  6

     Filename C:\EAC\Vince Guaraldi\Greatest Hits\06 - Days Of Wine And Roses.wav

     Pre-gap length  0:00:02.64

     Peak level 49.3 %
     Track quality 100.0 %
     Test CRC 77AA655F
     Copy CRC 77AA655F
     Accurately ripped (confidence 15)  [B60E3C57]
     Copy OK

Track  7

     Filename C:\EAC\Vince Guaraldi\Greatest Hits\07 - Star Song.wav

     Pre-gap length  0:00:02.02

     Peak level 50.8 %
     Track quality 100.0 %
     Test CRC 37B0ACF1
     Copy CRC 37B0ACF1
     Accurately ripped (confidence 15)  [E8C1E736]
     Copy OK

Track  8

     Filename C:\EAC\Vince Guaraldi\Greatest Hits\08 - Outra Vez.wav

     Pre-gap length  0:00:01.84

     Peak level 49.3 %
     Track quality 100.0 %
     Test CRC 69A7B521
     Copy CRC 69A7B521
     Accurately ripped (confidence 15)  [8D7698B2]
     Copy OK

Track  9

     Filename C:\EAC\Vince Guaraldi\Greatest Hits\09 - Samba De Orpheus.wav

     Pre-gap length  0:00:02.57

     Peak level 75.5 %
     Track quality 100.0 %
     Test CRC 001772DB
     Copy CRC 001772DB
     Accurately ripped (confidence 15)  [03F975AF]
     Copy OK

Track 10

     Filename C:\EAC\Vince Guaraldi\Greatest Hits\10 - Manha De Carnaval.wav

     Pre-gap length  0:00:02.33

     Peak level 52.6 %
     Track quality 100.0 %
     Test CRC 70686730
     Copy CRC 70686730
     Accurately ripped (confidence 15)  [D21EAD70]
     Copy OK

Track 11

     Filename C:\EAC\Vince Guaraldi\Greatest Hits\11 - Zelao.wav

     Pre-gap length  0:00:02.49

     Peak level 49.3 %
     Track quality 100.0 %
     Test CRC A6857C90
     Copy CRC A6857C90
     Accurately ripped (confidence 15)  [0418C58B]
     Copy OK

Track 12

     Filename C:\EAC\Vince Guaraldi\Greatest Hits\12 - Oh, Good Grief.wav

     Pre-gap length  0:00:02.62

     Peak level 60.6 %
     Track quality 100.0 %
     Test CRC F2E67702
     Copy CRC F2E67702
     Accurately ripped (confidence 15)  [6C476C0D]
     Copy OK

Track 13

     Filename C:\EAC\Vince Guaraldi\Greatest Hits\13 - Linus And Lucy.wav

     Pre-gap length  0:00:02.17

     Peak level 49.7 %
     Track quality 99.9 %
     Test CRC 97ABEEF6
     Copy CRC 97ABEEF6
     Accurately ripped (confidence 15)  [940E4BC3]
     Copy OK

Track 14

     Filename C:\EAC\Vince Guaraldi\Greatest Hits\14 - Christmas Time Is Here.wav

     Pre-gap length  0:00:02.86

     Peak level 46.6 %
     Track quality 100.0 %
     Test CRC 08649D1C
     Copy CRC 08649D1C
     Accurately ripped (confidence 14)  [504225AB]
     Copy OK

All tracks accurately ripped

No errors occurred

End of status report
Содержание индексной карты (.CUE)
REM GENRE Jazz
REM DATE 1989
REM DISCID C20D970E
REM COMMENT "ExactAudioCopy v0.99pb5"
PERFORMER "Vince Guaraldi"
TITLE "Greatest Hits"
FILE "Vince Guaraldi\Greatest Hits\01 - Cast Your Fate To The Wind.wav" WAVE
  TRACK 01 AUDIO
    TITLE "Cast Your Fate To The Wind"
    PERFORMER "Vince Guaraldi"
    INDEX 01 00:00:00
  TRACK 02 AUDIO
    TITLE "Ginza"
    PERFORMER "Vince Guaraldi"
    INDEX 00 03:06:10
FILE "Vince Guaraldi\Greatest Hits\02 - Ginza.wav" WAVE
    INDEX 01 00:00:00
  TRACK 03 AUDIO
    TITLE "Mr. Lucky"
    PERFORMER "Vince Guaraldi"
    INDEX 00 05:25:70
FILE "Vince Guaraldi\Greatest Hits\03 - Mr. Lucky.wav" WAVE
    INDEX 01 00:00:00
  TRACK 04 AUDIO
    TITLE "Treat Street"
    PERFORMER "Vince Guaraldi"
    INDEX 00 02:51:72
FILE "Vince Guaraldi\Greatest Hits\04 - Treat Street.wav" WAVE
    INDEX 01 00:00:00
  TRACK 05 AUDIO
    TITLE "I'm A Loser"
    PERFORMER "Vince Guaraldi"
    INDEX 00 02:59:45
FILE "Vince Guaraldi\Greatest Hits\05 - I'm A Loser.wav" WAVE
    INDEX 01 00:00:00
  TRACK 06 AUDIO
    TITLE "Days Of Wine And Roses"
    PERFORMER "Vince Guaraldi"
    INDEX 00 02:36:15
FILE "Vince Guaraldi\Greatest Hits\06 - Days Of Wine And Roses.wav" WAVE
    INDEX 01 00:00:00
  TRACK 07 AUDIO
    TITLE "Star Song"
    PERFORMER "Vince Guaraldi"
    INDEX 00 05:23:40
FILE "Vince Guaraldi\Greatest Hits\07 - Star Song.wav" WAVE
    INDEX 01 00:00:00
  TRACK 08 AUDIO
    TITLE "Outra Vez"
    PERFORMER "Vince Guaraldi"
    INDEX 00 04:46:70
FILE "Vince Guaraldi\Greatest Hits\08 - Outra Vez.wav" WAVE
    INDEX 01 00:00:00
  TRACK 09 AUDIO
    TITLE "Samba De Orpheus"
    PERFORMER "Vince Guaraldi"
    INDEX 00 02:51:02
FILE "Vince Guaraldi\Greatest Hits\09 - Samba De Orpheus.wav" WAVE
    INDEX 01 00:00:00
  TRACK 10 AUDIO
    TITLE "Manha De Carnaval"
    PERFORMER "Vince Guaraldi"
    INDEX 00 05:38:35
FILE "Vince Guaraldi\Greatest Hits\10 - Manha De Carnaval.wav" WAVE
    INDEX 01 00:00:00
  TRACK 11 AUDIO
    TITLE "Zelao"
    PERFORMER "Vince Guaraldi"
    INDEX 00 05:47:45
FILE "Vince Guaraldi\Greatest Hits\11 - Zelao.wav" WAVE
    INDEX 01 00:00:00
  TRACK 12 AUDIO
    TITLE "Oh, Good Grief"
    PERFORMER "Vince Guaraldi"
    INDEX 00 04:29:28
FILE "Vince Guaraldi\Greatest Hits\12 - Oh, Good Grief.wav" WAVE
    INDEX 01 00:00:00
  TRACK 13 AUDIO
    TITLE "Linus And Lucy"
    PERFORMER "Vince Guaraldi"
    INDEX 00 02:22:55
FILE "Vince Guaraldi\Greatest Hits\13 - Linus And Lucy.wav" WAVE
    INDEX 01 00:00:00
  TRACK 14 AUDIO
    TITLE "Christmas Time Is Here"
    PERFORMER "Vince Guaraldi"
    INDEX 00 03:03:57
FILE "Vince Guaraldi\Greatest Hits\14 - Christmas Time Is Here.wav" WAVE
    INDEX 01 00:00:00
Приватный:
Нет (DHT включён)
Размер:
278.89 Мб (292,432,151 байт) » файлов: 18
Участники:
0 раздают, 0 качают (0 участников всего)
Внешние участники:
3 раздают, 1 качают (4 участников всего) [ Обновить ]
17:42
87
RSS
Нет комментариев. Ваш будет первым!