Поиск

2006 Grover Washington, Jr. - Gold (2CD) {Hip-O B0006073-02}

2006 Grover Washington, Jr. - Gold (2CD) {Hip-O B0006073-02}
Дата издания диска:
10 января 2006
Издатель (лейбл):
Номер по каталогу:
B0006073-02
Носитель:
CD
Битрейт аудио:
lossless
Аудиокодек:
FLAC (*.flac)
Тип рипа:
tracks+.cue
Время звучания:
01:17:28 / 01:17:17
Наличие сканов:
  • да
Релизёр (источник):
twofootputt
Состав:
  • Mark Blakkat Bell    Vocals
  • Bill Cosby    Composer, Vocals
  • Robert Freedman    Arranger, Conductor, Producer
  • Stu Gardner    Composer, Producer
  • Leonard "Doc" Gibbs    Arranger, Composer
  • Lalah Hathaway    Primary Artist
  • Phyllis Hyman    Vocals
  • King Britt    Composer, Producer
  • Patti LaBelle    Vocals
  • Ralph MacDonald    Composer, Producer
  • Marcus Miller    Arranger, Composer, Producer
  • Tim Motzer    Composer, Guitar, Programming
  • William Salter    Arranger, Composer, Producer
  • Jon Smeltz    Engineer, Mixing
  • Sylk 130    Primary Artist
  • Grady Tate    Primary Artist
  • Creed Taylor    Producer
  • Dexter Wansel    Arranger, Composer, Producer
  • Grover Washington, Jr.    Arranger, Composer, Producer, Saxophone
  • Bill Withers    Composer, Vocals

Disc 1:
01. Inner City Blues (Make Me Wanna Holler) 7:09
02. Mercy Mercy Me (The Ecology) 5:06
03. Where Is The Love 5:06
04. No Tears, In The End 3:48
05. You Are The Sunshine Of My Life 6:02
06. Mister Magic 8:58
07. Black Frost 6:05
08. It Feels So Good 8:15
09. Moonstreams 5:49
10. A Secret Place 8:13
11. Summer Song 7:37 Album Only
12. Reed Seed (Trio Tune) 4:52
Disc 2:
01. Do Dat 4:25
02. Bright Moments 6:26
03. Let It Flow (For Dr. J) 5:50
04. Just The Two Of Us 7:19
05. Be Mine (Tonight) 6:23
06. Jamming 5:05
07. The Best Is Yet To Come 5:57
08. Inside Moves 5:50
09. Look At This 3:14
10. Summer Nights 6:13
11. Sacred Kind Of Love 5:38
12. Love Like This 4:49
13. For Love Sylk 130 5:41
14. Vissi D'Arte (I Lived For Art) 3:51

Лог создания рипа
CD 1
Exact Audio Copy V0.99 prebeta 5 from 4. May 2009
EAC extraction logfile from 21. August 2010, 18:02
Grover Washington Jr. / Gold (Disc 1)
Used drive : _NEC DVD_RW ND-3550A Adapter: 0 ID: 0
Read mode : Secure
Utilize accurate stream : Yes
Defeat audio cache : Yes
Make use of C2 pointers : No
Read offset correction : 48
Overread into Lead-In and Lead-Out : No
Fill up missing offset samples with silence : Yes
Delete leading and trailing silent blocks : No
Null samples used in CRC calculations : Yes
Used interface : Installed external ASPI interface
Gap handling : Appended to previous track
Used output format : User Defined Encoder
Selected bitrate : 768 kBit/s
Quality : High
Add ID3 tag : No
Command line compressor : C:\Program Files\Exact Audio Copy\FLAC\FLAC.EXE
Additional command line options : -V -8 -T "artist=%a" -T "title=%t" -T "album=%g" -T "date=%y" -T "tracknumber=%n" -T "genre=%m" %s
TOC of the extracted CD Track | Start | Length | Start sector | End sector --------------------------------------------------------- 1 | 0:00.00 | 7:11.67 | 0 | 32391 2 | 7:11.67 | 5:08.42 | 32392 | 55533 3 | 12:20.34 | 5:08.45 | 55534 | 78678 4 | 17:29.04 | 3:50.08 | 78679 | 95936 5 | 21:19.12 | 6:04.50 | 95937 | 123286 6 | 27:23.62 | 9:00.61 | 123287 | 163847 7 | 36:24.48 | 6:07.35 | 163848 | 191407 8 | 42:32.08 | 8:17.65 | 191408 | 228747 9 | 50:49.73 | 5:51.20 | 228748 | 255092 10 | 56:41.18 | 8:13.64 | 255093 | 292131 11 | 64:55.07 | 7:39.65 | 292132 | 326621 12 | 72:34.72 | 4:52.36 | 326622 | 348557
Track 1 Filename L:\Grover Washington Jr\Gold\Grover Washington Jr. - Gold (Disc 1) - 01 - Inner City Blues (Make Me Wanna Holler).wav Pre-gap length 0:00:02.00 Peak level 79.3 % Track quality 100.0 % Test CRC 68C19D65 Copy CRC 68C19D65 Accurately ripped (confidence 1) [C12309EC] Copy OK
Track 2 Filename L:\Grover Washington Jr\Gold\Grover Washington Jr. - Gold (Disc 1) - 02 - Mercy Mercy Me (The Ecology).wav Pre-gap length 0:00:02.57 Peak level 89.0 % Track quality 100.0 % Test CRC C5206615 Copy CRC C5206615 Accurately ripped (confidence 1) [FA81914F] Copy OK
Track 3 Filename L:\Grover Washington Jr\Gold\Grover Washington Jr. - Gold (Disc 1) - 03 - Where Is The Love.wav Pre-gap length 0:00:02.45 Peak level 89.0 % Track quality 100.0 % Test CRC A10699C6 Copy CRC A10699C6 Accurately ripped (confidence 1) [FCF389ED] Copy OK
Track 4 Filename L:\Grover Washington Jr\Gold\Grover Washington Jr. - Gold (Disc 1) - 04 - No Tears (In The End).wav Pre-gap length 0:00:02.45 Peak level 79.3 % Track quality 99.9 % Test CRC 7B159B6F Copy CRC 7B159B6F Accurately ripped (confidence 1) [659030F6] Copy OK
Track 5 Filename L:\Grover Washington Jr\Gold\Grover Washington Jr. - Gold (Disc 1) - 05 - You Are The Sunshine Of My Life.wav Pre-gap length 0:00:01.32 Peak level 85.0 % Track quality 100.0 % Test CRC AB3BF213 Copy CRC AB3BF213 Accurately ripped (confidence 1) [99E172A3] Copy OK
Track 6 Filename L:\Grover Washington Jr\Gold\Grover Washington Jr. - Gold (Disc 1) - 06 - Mister Magic.wav Pre-gap length 0:00:02.41 Peak level 75.8 % Track quality 100.0 % Test CRC 25DAFEE3 Copy CRC 25DAFEE3 Accurately ripped (confidence 1) [478E7D1F] Copy OK
Track 7 Filename L:\Grover Washington Jr\Gold\Grover Washington Jr. - Gold (Disc 1) - 07 - Black Frost.wav Pre-gap length 0:00:02.41 Peak level 74.9 % Track quality 100.0 % Test CRC 3015CE94 Copy CRC 3015CE94 Accurately ripped (confidence 1) [DDC7B31D] Copy OK
Track 8 Filename L:\Grover Washington Jr\Gold\Grover Washington Jr. - Gold (Disc 1) - 08 - It Feels So Good.wav Pre-gap length 0:00:02.36 Peak level 74.9 % Track quality 100.0 % Test CRC 93994F96 Copy CRC 93994F96 Accurately ripped (confidence 1) [26CFB85C] Copy OK
Track 9 Filename L:\Grover Washington Jr\Gold\Grover Washington Jr. - Gold (Disc 1) - 09 - Moonstreams.wav Pre-gap length 0:00:02.54 Peak level 89.0 % Track quality 100.0 % Test CRC 31C04140 Copy CRC 31C04140 Accurately ripped (confidence 1) [3637538B] Copy OK
Track 10 Filename L:\Grover Washington Jr\Gold\Grover Washington Jr. - Gold (Disc 1) - 10 - A Secret Place.wav Pre-gap length 0:00:02.49 Peak level 79.3 % Track quality 100.0 % Test CRC 20D99907 Copy CRC 20D99907 Accurately ripped (confidence 1) [DB05E76F] Copy OK
Track 11 Filename L:\Grover Washington Jr\Gold\Grover Washington Jr. - Gold (Disc 1) - 11 - Summer Song.wav Pre-gap length 0:00:01.26 Peak level 100.0 % Track quality 100.0 % Test CRC 3E03ECFA Copy CRC 3E03ECFA Accurately ripped (confidence 1) [CCBFF7C6] Copy OK
Track 12 Filename L:\Grover Washington Jr\Gold\Grover Washington Jr. - Gold (Disc 1) - 12 - Reed Seed (Trio Tune).wav Pre-gap length 0:00:02.33 Peak level 87.8 % Track quality 100.0 % Test CRC 345ABE5D Copy CRC 345ABE5D Accurately ripped (confidence 1) [396A6FA4] Copy OK
All tracks accurately ripped
No errors occurred
End of status report
CD 2
Exact Audio Copy V0.99 prebeta 5 from 4. May 2009
EAC extraction logfile from 21. August 2010, 18:39
Grover Washington Jr / Gold (Disc 2)
Used drive : _NEC DVD_RW ND-3550A Adapter: 0 ID: 0
Read mode : Secure
Utilize accurate stream : Yes
Defeat audio cache : Yes
Make use of C2 pointers : No
Read offset correction : 48
Overread into Lead-In and Lead-Out : No
Fill up missing offset samples with silence : Yes
Delete leading and trailing silent blocks : No
Null samples used in CRC calculations : Yes
Used interface : Installed external ASPI interface
Gap handling : Appended to previous track
Used output format : User Defined Encoder
Selected bitrate : 768 kBit/s
Quality : High
Add ID3 tag : No
Command line compressor : C:\Program Files\Exact Audio Copy\FLAC\FLAC.EXE
Additional command line options : -V -8 -T "artist=%a" -T "title=%t" -T "album=%g" -T "date=%y" -T "tracknumber=%n" -T "genre=%m" %s
TOC of the extracted CD Track | Start | Length | Start sector | End sector --------------------------------------------------------- 1 | 0:00.00 | 4:27.42 | 0 | 20066 2 | 4:27.42 | 6:29.00 | 20067 | 49241 3 | 10:56.42 | 5:52.37 | 49242 | 75678 4 | 16:49.04 | 7:21.46 | 75679 | 108799 5 | 24:10.50 | 6:25.24 | 108800 | 137698 6 | 30:35.74 | 5:07.50 | 137699 | 160773 7 | 35:43.49 | 5:59.30 | 160774 | 187728 8 | 41:43.04 | 5:52.43 | 187729 | 214171 9 | 47:35.47 | 3:16.45 | 214172 | 228916 10 | 50:52.17 | 6:15.27 | 228917 | 257068 11 | 57:07.44 | 5:40.58 | 257069 | 282626 12 | 62:48.27 | 4:52.05 | 282627 | 304531 13 | 67:40.32 | 5:44.07 | 304532 | 330338 14 | 73:24.39 | 3:51.47 | 330339 | 347710
Track 1 Filename L:\Grover Washington Jr\Gold\Disc 2\Grover Washington Jr - Gold (Disc 2) - 01 - Do Dat.wav Pre-gap length 0:00:02.00 Peak level 69.9 % Track quality 100.0 % Test CRC B3ADD3F8 Copy CRC B3ADD3F8 Accurately ripped (confidence 1) [C4844AD6] Copy OK
Track 2 Filename L:\Grover Washington Jr\Gold\Disc 2\Grover Washington Jr - Gold (Disc 2) - 02 - Bright Moments.wav Pre-gap length 0:00:02.54 Peak level 70.3 % Track quality 100.0 % Test CRC 374A3167 Copy CRC 374A3167 Accurately ripped (confidence 1) [7E51423A] Copy OK
Track 3 Filename L:\Grover Washington Jr\Gold\Disc 2\Grover Washington Jr - Gold (Disc 2) - 03 - Let it Flow (For Dr. J).wav Pre-gap length 0:00:02.66 Peak level 100.0 % Track quality 100.0 % Test CRC 3EE55F09 Copy CRC 3EE55F09 Accurately ripped (confidence 1) [9E18C073] Copy OK
Track 4 Filename L:\Grover Washington Jr\Gold\Disc 2\Grover Washington Jr - Gold (Disc 2) - 04 - Just the Two of Us.wav Pre-gap length 0:00:02.53 Peak level 87.0 % Track quality 99.9 % Test CRC F6F1DE56 Copy CRC F6F1DE56 Accurately ripped (confidence 1) [9CC81323] Copy OK
Track 5 Filename L:\Grover Washington Jr\Gold\Disc 2\Grover Washington Jr - Gold (Disc 2) - 05 - Be Mine (Tonight).wav Pre-gap length 0:00:02.58 Peak level 100.0 % Track quality 100.0 % Test CRC 0DBA7EB1 Copy CRC 0DBA7EB1 Accurately ripped (confidence 1) [9C7EE04E] Copy OK
Track 6 Filename L:\Grover Washington Jr\Gold\Disc 2\Grover Washington Jr - Gold (Disc 2) - 06 - Jamming.wav Pre-gap length 0:00:02.54 Peak level 80.3 % Track quality 100.0 % Test CRC EC7E546C Copy CRC EC7E546C Accurately ripped (confidence 1) [81635063] Copy OK
Track 7 Filename L:\Grover Washington Jr\Gold\Disc 2\Grover Washington Jr - Gold (Disc 2) - 07 - The Best is Yet to Come.wav Pre-gap length 0:00:02.52 Peak level 100.0 % Track quality 100.0 % Test CRC D151F4A5 Copy CRC D151F4A5 Accurately ripped (confidence 1) [738026FB] Copy OK
Track 8 Filename L:\Grover Washington Jr\Gold\Disc 2\Grover Washington Jr - Gold (Disc 2) - 08 - Inside Moves.wav Pre-gap length 0:00:02.41 Peak level 99.9 % Track quality 100.0 % Test CRC 3CE3A946 Copy CRC 3CE3A946 Accurately ripped (confidence 1) [9F145B6E] Copy OK
Track 9 Filename L:\Grover Washington Jr\Gold\Disc 2\Grover Washington Jr - Gold (Disc 2) - 09 - Look at This.wav Pre-gap length 0:00:02.53 Peak level 65.9 % Track quality 100.0 % Test CRC 42691E75 Copy CRC 42691E75 Accurately ripped (confidence 1) [01CD0A6E] Copy OK
Track 10 Filename L:\Grover Washington Jr\Gold\Disc 2\Grover Washington Jr - Gold (Disc 2) - 10 - Summer Nights.wav Pre-gap length 0:00:02.46 Peak level 78.3 % Track quality 100.0 % Test CRC B958C6ED Copy CRC B958C6ED Accurately ripped (confidence 1) [8B9DD1BF] Copy OK
Track 11 Filename L:\Grover Washington Jr\Gold\Disc 2\Grover Washington Jr - Gold (Disc 2) - 11 - Sacred Kind of Love.wav Pre-gap length 0:00:02.52 Peak level 79.3 % Track quality 100.0 % Test CRC 16FC60A0 Copy CRC 16FC60A0 Accurately ripped (confidence 1) [2F0A047C] Copy OK
Track 12 Filename L:\Grover Washington Jr\Gold\Disc 2\Grover Washington Jr - Gold (Disc 2) - 12 - Love Like This.wav Pre-gap length 0:00:02.50 Peak level 99.9 % Track quality 100.0 % Test CRC FB4C0691 Copy CRC FB4C0691 Accurately ripped (confidence 1) [38F72D7D] Copy OK
Track 13 Filename L:\Grover Washington Jr\Gold\Disc 2\Grover Washington Jr - Gold (Disc 2) - 13 - For Love.wav Pre-gap length 0:00:02.57 Peak level 62.8 % Track quality 100.0 % Test CRC 5C0295FE Copy CRC 5C0295FE Accurately ripped (confidence 1) [96FB0FF7] Copy OK
Track 14 Filename L:\Grover Washington Jr\Gold\Disc 2\Grover Washington Jr - Gold (Disc 2) - 14 - Vissi D'Arte (I Lived for Art).wav Pre-gap length 0:00:02.41 Peak level 100.0 % Track quality 100.0 % Test CRC 8C5C233F Copy CRC 8C5C233F Accurately ripped (confidence 1) [E4D6BBDD] Copy OK
All tracks accurately ripped
No errors occurred
End of status report
Содержание индексной карты (.CUE)
REM GENRE Jazz
REM DATE 2006
REM DISCID 9D12270C
REM COMMENT "ExactAudioCopy v0.99pb5"
PERFORMER "Grover Washington Jr."
TITLE "Gold"
FILE "Grover Washington Jr. - Gold (Disc 1) - 01 - Inner City Blues (Make Me Wanna Holler).wav" WAVE TRACK 01 AUDIO
TITLE "Inner City Blues (Make Me Wanna Holler)"
PERFORMER "Grover Washington Jr." INDEX 01 00:00:00 TRACK 02 AUDIO
TITLE "Mercy Mercy Me"
PERFORMER "Grover Washington Jr." INDEX 00 07:09:24
FILE "Grover Washington Jr. - Gold (Disc 1) - 02 - Mercy Mercy Me (The Ecology).wav" WAVE INDEX 01 00:00:00 TRACK 03 AUDIO
TITLE "Where Is The Love"
PERFORMER "Grover Washington Jr." INDEX 00 05:06:08
FILE "Grover Washington Jr. - Gold (Disc 1) - 03 - Where Is The Love.wav" WAVE INDEX 01 00:00:00 TRACK 04 AUDIO
TITLE "No Tears, In The End"
PERFORMER "Grover Washington Jr." INDEX 00 05:06:11
FILE "Grover Washington Jr. - Gold (Disc 1) - 04 - No Tears (In The End).wav" WAVE INDEX 01 00:00:00 TRACK 05 AUDIO
TITLE "You Are The Sunshine Of My Life"
PERFORMER "Grover Washington Jr." INDEX 00 03:48:59
FILE "Grover Washington Jr. - Gold (Disc 1) - 05 - You Are The Sunshine Of My Life.wav" WAVE INDEX 01 00:00:00 TRACK 06 AUDIO
TITLE "Mister Magic"
PERFORMER "Grover Washington Jr." INDEX 00 06:02:19
FILE "Grover Washington Jr. - Gold (Disc 1) - 06 - Mister Magic.wav" WAVE INDEX 01 00:00:00 TRACK 07 AUDIO
TITLE "Black Frost"
PERFORMER "Grover Washington Jr." INDEX 00 08:58:30
FILE "Grover Washington Jr. - Gold (Disc 1) - 07 - Black Frost.wav" WAVE INDEX 01 00:00:00 TRACK 08 AUDIO
TITLE "It Feels So Good"
PERFORMER "Grover Washington Jr." INDEX 00 06:05:08
FILE "Grover Washington Jr. - Gold (Disc 1) - 08 - It Feels So Good.wav" WAVE INDEX 01 00:00:00 TRACK 09 AUDIO
TITLE "Moonstreams"
PERFORMER "Grover Washington Jr." INDEX 00 08:15:24
FILE "Grover Washington Jr. - Gold (Disc 1) - 09 - Moonstreams.wav" WAVE INDEX 01 00:00:00 TRACK 10 AUDIO
TITLE "A Secret Place"
PERFORMER "Grover Washington Jr." INDEX 00 05:48:58
FILE "Grover Washington Jr. - Gold (Disc 1) - 10 - A Secret Place.wav" WAVE INDEX 01 00:00:00 TRACK 11 AUDIO
TITLE "Summer Song"
PERFORMER "Grover Washington Jr." INDEX 00 08:12:44
FILE "Grover Washington Jr. - Gold (Disc 1) - 11 - Summer Song.wav" WAVE INDEX 01 00:00:00 TRACK 12 AUDIO
TITLE "Reed Seed"
PERFORMER "Grover Washington Jr." INDEX 00 07:37:40
FILE "Grover Washington Jr. - Gold (Disc 1) - 12 - Reed Seed (Trio Tune).wav" WAVE INDEX 01 00:00:00
REM GENRE Jazz
REM DATE 2006
REM DISCID 9D12270C
REM COMMENT "ExactAudioCopy v0.99pb5"
PERFORMER "Grover Washington Jr."
TITLE "Gold"
FILE "Grover Washington Jr. - Gold (Disc 1) - 01 - Inner City Blues (Make Me Wanna Holler).wav" WAVE TRACK 01 AUDIO
TITLE "Inner City Blues (Make Me Wanna Holler)"
PERFORMER "Grover Washington Jr." INDEX 01 00:00:00 TRACK 02 AUDIO
TITLE "Mercy Mercy Me"
PERFORMER "Grover Washington Jr." INDEX 00 07:09:24
FILE "Grover Washington Jr. - Gold (Disc 1) - 02 - Mercy Mercy Me (The Ecology).wav" WAVE INDEX 01 00:00:00 TRACK 03 AUDIO
TITLE "Where Is The Love"
PERFORMER "Grover Washington Jr." INDEX 00 05:06:08
FILE "Grover Washington Jr. - Gold (Disc 1) - 03 - Where Is The Love.wav" WAVE INDEX 01 00:00:00 TRACK 04 AUDIO
TITLE "No Tears, In The End"
PERFORMER "Grover Washington Jr." INDEX 00 05:06:11
FILE "Grover Washington Jr. - Gold (Disc 1) - 04 - No Tears (In The End).wav" WAVE INDEX 01 00:00:00 TRACK 05 AUDIO
TITLE "You Are The Sunshine Of My Life"
PERFORMER "Grover Washington Jr." INDEX 00 03:48:59
FILE "Grover Washington Jr. - Gold (Disc 1) - 05 - You Are The Sunshine Of My Life.wav" WAVE INDEX 01 00:00:00 TRACK 06 AUDIO
TITLE "Mister Magic"
PERFORMER "Grover Washington Jr." INDEX 00 06:02:19
FILE "Grover Washington Jr. - Gold (Disc 1) - 06 - Mister Magic.wav" WAVE INDEX 01 00:00:00 TRACK 07 AUDIO
TITLE "Black Frost"
PERFORMER "Grover Washington Jr." INDEX 00 08:58:30
FILE "Grover Washington Jr. - Gold (Disc 1) - 07 - Black Frost.wav" WAVE INDEX 01 00:00:00 TRACK 08 AUDIO
TITLE "It Feels So Good"
PERFORMER "Grover Washington Jr." INDEX 00 06:05:08
FILE "Grover Washington Jr. - Gold (Disc 1) - 08 - It Feels So Good.wav" WAVE INDEX 01 00:00:00 TRACK 09 AUDIO
TITLE "Moonstreams"
PERFORMER "Grover Washington Jr." INDEX 00 08:15:24
FILE "Grover Washington Jr. - Gold (Disc 1) - 09 - Moonstreams.wav" WAVE INDEX 01 00:00:00 TRACK 10 AUDIO
TITLE "A Secret Place"
PERFORMER "Grover Washington Jr." INDEX 00 05:48:58
FILE "Grover Washington Jr. - Gold (Disc 1) - 10 - A Secret Place.wav" WAVE INDEX 01 00:00:00 TRACK 11 AUDIO
TITLE "Summer Song"
PERFORMER "Grover Washington Jr." INDEX 00 08:12:44
FILE "Grover Washington Jr. - Gold (Disc 1) - 11 - Summer Song.wav" WAVE INDEX 01 00:00:00 TRACK 12 AUDIO
TITLE "Reed Seed"
PERFORMER "Grover Washington Jr." INDEX 00 07:37:40
FILE "Grover Washington Jr. - Gold (Disc 1) - 12 - Reed Seed (Trio Tune).wav" WAVE INDEX 01 00:00:00
=====================================================
REM GENRE Jazz
REM DATE 2006
REM DISCID BF121C0E
REM COMMENT "ExactAudioCopy v0.99pb5"
PERFORMER "Grover Washington Jr."
TITLE "Gold"
FILE "Grover Washington Jr - Gold (Disc 2) - 01 - Do Dat.wav" WAVE TRACK 01 AUDIO
TITLE "Do Dat"
PERFORMER "Grover Washington Jr." INDEX 01 00:00:00 TRACK 02 AUDIO
TITLE "Bright Moments"
PERFORMER "Grover Washington Jr." INDEX 00 04:25:01
FILE "Grover Washington Jr - Gold (Disc 2) - 02 - Bright Moments.wav" WAVE INDEX 01 00:00:00 TRACK 03 AUDIO
TITLE "Let It Flow"
PERFORMER "Grover Washington Jr." INDEX 00 06:26:25
FILE "Grover Washington Jr - Gold (Disc 2) - 03 - Let it Flow (For Dr. J).wav" WAVE INDEX 01 00:00:00 TRACK 04 AUDIO
TITLE "Just The Two Of Us"
PERFORMER "Grover Washington Jr." INDEX 00 05:49:72
FILE "Grover Washington Jr - Gold (Disc 2) - 04 - Just the Two of Us.wav" WAVE INDEX 01 00:00:00 TRACK 05 AUDIO
TITLE "Be Mine"
PERFORMER "Grover Washington Jr." INDEX 00 07:19:02
FILE "Grover Washington Jr - Gold (Disc 2) - 05 - Be Mine (Tonight).wav" WAVE INDEX 01 00:00:00 TRACK 06 AUDIO
TITLE "Jamming"
PERFORMER "Grover Washington Jr." INDEX 00 06:22:58
FILE "Grover Washington Jr - Gold (Disc 2) - 06 - Jamming.wav" WAVE INDEX 01 00:00:00 TRACK 07 AUDIO
TITLE "The Best Is Yet To Come"
PERFORMER "Grover Washington Jr." INDEX 00 05:05:11
FILE "Grover Washington Jr - Gold (Disc 2) - 07 - The Best is Yet to Come.wav" WAVE INDEX 01 00:00:00 TRACK 08 AUDIO
TITLE "Inside Moves"
PERFORMER "Grover Washington Jr." INDEX 00 05:56:74
FILE "Grover Washington Jr - Gold (Disc 2) - 08 - Inside Moves.wav" WAVE INDEX 01 00:00:00 TRACK 09 AUDIO
TITLE "Look At This"
PERFORMER "Grover Washington Jr." INDEX 00 05:50:03
FILE "Grover Washington Jr - Gold (Disc 2) - 09 - Look at This.wav" WAVE INDEX 01 00:00:00 TRACK 10 AUDIO
TITLE "Summer Nights"
PERFORMER "Grover Washington Jr." INDEX 00 03:14:10
FILE "Grover Washington Jr - Gold (Disc 2) - 10 - Summer Nights.wav" WAVE INDEX 01 00:00:00 TRACK 11 AUDIO
TITLE "Sacred Kind Of Love"
PERFORMER "Grover Washington Jr." INDEX 00 06:12:63
FILE "Grover Washington Jr - Gold (Disc 2) - 11 - Sacred Kind of Love.wav" WAVE INDEX 01 00:00:00 TRACK 12 AUDIO
TITLE "Love Like This"
PERFORMER "Grover Washington Jr." INDEX 00 05:38:20
FILE "Grover Washington Jr - Gold (Disc 2) - 12 - Love Like This.wav" WAVE INDEX 01 00:00:00 TRACK 13 AUDIO
TITLE "For Love Sylk 130"
PERFORMER "Grover Washington Jr." INDEX 00 04:49:37
FILE "Grover Washington Jr - Gold (Disc 2) - 13 - For Love.wav" WAVE INDEX 01 00:00:00 TRACK 14 AUDIO
TITLE "Vissi D'Arte"
PERFORMER "Grover Washington Jr." INDEX 00 05:41:51
FILE "Grover Washington Jr - Gold (Disc 2) - 14 - Vissi D'Arte (I Lived for Art).wav" WAVE INDEX 01 00:00:00
Приватный:
Нет (DHT включён)
Размер:
918.42 Мб (963,027,961 байт) » файлов: 44
Участники:
0 раздают, 0 качают (0 участников всего)
Внешние участники:
5 раздают, 1 качают (6 участников всего) [ Обновить ]
18:13
124
RSS
Нет комментариев. Ваш будет первым!