Поиск

1952 (1995) Stan Getz - Jazz & Blues Collection 28 {Editions Atlas WIS CD 628}

1952 (1995) Stan Getz - Jazz & Blues Collection 28 {Editions Atlas WIS CD 628}
Стили:
Страна-производитель диска (релиза):
France
Дата записи диска:
10 и 12 апреля, 6 и 9 мая, 1 и 5-13 и 15 августа 1952
Дата издания диска:
1995
Издатель (лейбл):
Номер по каталогу:
WIS CD 628
Носитель:
CD
Битрейт аудио:
lossless
Аудиокодек:
FLAC (*.flac)
Тип рипа:
tracks+.cue
Время звучания:
01:15;26
Наличие сканов:
  • нет
Релизёр (источник):
theRadDept
Треклист:

01 - Woody'n You [5:02]
02 - Yesterdays [4:00]
03 - The Song Is You [6:05]
04 - I Only Have Eyes For You [3:06]
05 - Move [6:19]
06 - Long Island Sound [7:45]
07 - 'Round Midnight [3:55]
08 - Spotlite (Just You And Me) [6:38]
09 - Yesterdays [4:37]
10 - Potter's Luck [5:09]
11 - I Can't Get Started [3:02]
12 - Parker 51 [5:15]
13 - My Old Flame [2:52]
14 - Move [5:46]
15 - I'll Remember April [5:55]

Состав:
  • Bass – Charlie Mingus* (tracks: 10 to 12), Gene Ramey (tracks: 1 to 5, 13 to 15),Nelson Boyd (tracks: 6 to 9)
  • Drums – Connie Kay (tracks: 10 to 12), Phil Brown (23) (tracks: 1 to 9, 13 to 15)
  • Guitar – Jimmy Raney
  • Piano – Duke Jordan (tracks: 1 to 9, 13 to 15), Horace Silver (tracks: 10 to 12)
  • Tenor Saxophone – Stan Getz

Записано в  New York, April 1952 (tracks10 to 12), May 1952 (tracks 6 to 9), August 1952 (tracks 1 to 5, 13 to 15). 

Лог создания рипа
Exact Audio Copy V0.99 prebeta 4 from 23. January 2008
EAC extraction logfile from 29. September 2008, 13:11
Stan Getz / Jazz & Blues Collection
Used drive : HL-DT-STDVDRAM GH20NS10 Adapter: 3 ID: 0
Read mode : Secure
Utilize accurate stream : Yes
Defeat audio cache : Yes
Make use of C2 pointers : No
Read offset correction : 667
Overread into Lead-In and Lead-Out : No
Fill up missing offset samples with silence : Yes
Delete leading and trailing silent blocks : No
Null samples used in CRC calculations : Yes
Used interface : Native Win32 interface for Win NT & 2000
Gap handling : Appended to previous track
Used output format : User Defined Encoder
Selected bitrate : 768 kBit/s
Quality : High
Add ID3 tag : No
Command line compressor : C:\Program Files\FLAC\flac.exe
Additional command line options : -V -8 -T "artist=%a" -T "title=%t" -T "album=%g" -T "date=%y" -T "tracknumber=%n" %s
TOC of the extracted CD Track | Start | Length | Start sector | End sector --------------------------------------------------------- 1 | 0:00.32 | 5:01.65 | 32 | 22671 2 | 5:02.22 | 3:59.50 | 22672 | 40646 3 | 9:01.72 | 6:04.68 | 40647 | 68014 4 | 15:06.65 | 3:05.62 | 68015 | 81951 5 | 18:12.52 | 6:18.55 | 81952 | 110356 6 | 24:31.32 | 7:44.40 | 110357 | 145196 7 | 32:15.72 | 3:55.10 | 145197 | 162831 8 | 36:11.07 | 6:38.05 | 162832 | 192686 9 | 42:49.12 | 4:36.40 | 192687 | 213426 10 | 47:25.52 | 5:08.68 | 213427 | 236594 11 | 52:34.45 | 3:01.50 | 236595 | 250219 12 | 55:36.20 | 5:14.47 | 250220 | 273816 13 | 60:50.67 | 2:52.05 | 273817 | 286721 14 | 63:42.72 | 5:45.65 | 286722 | 312661 15 | 69:28.62 | 5:54.58 | 312662 | 339269
Track 1 Filename C:\Hi there RIAA, What's up IFPI\Stan Getz - Jazz & Blues Collection\01 - Woody'n You.wav Pre-gap length 0:00:02.42 Peak level 80.9 % Track quality 100.0 % Test CRC 3EAA4322 Copy CRC 3EAA4322 Track not present in AccurateRip database Copy OK
Track 2 Filename C:\Hi there RIAA, What's up IFPI\Stan Getz - Jazz & Blues Collection\02 - Yesterdays.wav Pre-gap length 0:00:01.16 Peak level 68.1 % Track quality 100.0 % Test CRC 12A8140E Copy CRC 12A8140E Track not present in AccurateRip database Copy OK
Track 3 Filename C:\Hi there RIAA, What's up IFPI\Stan Getz - Jazz & Blues Collection\03 - The Song Is You.wav Pre-gap length 0:00:01.40 Peak level 72.8 % Track quality 99.9 % Test CRC 37DE2396 Copy CRC 37DE2396 Track not present in AccurateRip database Copy OK
Track 4 Filename C:\Hi there RIAA, What's up IFPI\Stan Getz - Jazz & Blues Collection\04 - I Only Have Eyes For You.wav Pre-gap length 0:00:01.26 Peak level 70.4 % Track quality 100.0 % Test CRC E3AC6E76 Copy CRC E3AC6E76 Track not present in AccurateRip database Copy OK
Track 5 Filename C:\Hi there RIAA, What's up IFPI\Stan Getz - Jazz & Blues Collection\05 - Move.wav Pre-gap length 0:00:01.40 Peak level 64.2 % Track quality 100.0 % Test CRC E77B873C Copy CRC E77B873C Track not present in AccurateRip database Copy OK
Track 6 Filename C:\Hi there RIAA, What's up IFPI\Stan Getz - Jazz & Blues Collection\06 - Long Island Sound.wav Pre-gap length 0:00:01.16 Peak level 83.4 % Track quality 99.9 % Test CRC C867BD64 Copy CRC C867BD64 Track not present in AccurateRip database Copy OK
Track 7 Filename C:\Hi there RIAA, What's up IFPI\Stan Getz - Jazz & Blues Collection\07 - 'Round Midnight.wav Pre-gap length 0:00:01.62 Peak level 95.0 % Track quality 100.0 % Test CRC BE53C094 Copy CRC BE53C094 Track not present in AccurateRip database Copy OK
Track 8 Filename C:\Hi there RIAA, What's up IFPI\Stan Getz - Jazz & Blues Collection\08 - Spotlite (Just You And Me).wav Pre-gap length 0:00:01.36 Peak level 77.5 % Track quality 100.0 % Test CRC A99EC7B4 Copy CRC A99EC7B4 Track not present in AccurateRip database Copy OK
Track 9 Filename C:\Hi there RIAA, What's up IFPI\Stan Getz - Jazz & Blues Collection\09 - Yesterdays.wav Pre-gap length 0:00:01.00 Peak level 96.1 % Track quality 100.0 % Test CRC 07A10FBB Copy CRC 07A10FBB Track not present in AccurateRip database Copy OK
Track 10 Filename C:\Hi there RIAA, What's up IFPI\Stan Getz - Jazz & Blues Collection\10 - Potter's Luck.wav Pre-gap length 0:00:01.09 Peak level 91.2 % Track quality 100.0 % Test CRC 4FA4D2BD Copy CRC 4FA4D2BD Track not present in AccurateRip database Copy OK
Track 11 Filename C:\Hi there RIAA, What's up IFPI\Stan Getz - Jazz & Blues Collection\11 - I Can't Get Started.wav Pre-gap length 0:00:01.00 Peak level 68.3 % Track quality 99.9 % Test CRC 8F0419BC Copy CRC 8F0419BC Track not present in AccurateRip database Copy OK
Track 12 Filename C:\Hi there RIAA, What's up IFPI\Stan Getz - Jazz & Blues Collection\12 - Parker 51.wav Pre-gap length 0:00:01.01 Peak level 92.2 % Track quality 100.0 % Test CRC 2BBB065B Copy CRC 2BBB065B Track not present in AccurateRip database Copy OK
Track 13 Filename C:\Hi there RIAA, What's up IFPI\Stan Getz - Jazz & Blues Collection\13 - My Old Flame.wav Pre-gap length 0:00:01.33 Peak level 73.4 % Track quality 100.0 % Test CRC 5530AD8D Copy CRC 5530AD8D Track not present in AccurateRip database Copy OK
Track 14 Filename C:\Hi there RIAA, What's up IFPI\Stan Getz - Jazz & Blues Collection\14 - Move.wav Pre-gap length 0:00:01.53 Peak level 98.4 % Track quality 100.0 % Test CRC B7C45A21 Copy CRC B7C45A21 Track not present in AccurateRip database Copy OK
Track 15 Filename C:\Hi there RIAA, What's up IFPI\Stan Getz - Jazz & Blues Collection\15 - I'll Remember April.wav Pre-gap length 0:00:01.00 Peak level 87.9 % Track quality 100.0 % Test CRC D4CBEE13 Copy CRC D4CBEE13 Track not present in AccurateRip database Copy OK
None of the tracks are present in the AccurateRip database
No errors occurred
End of status report
Содержание индексной карты (.CUE)
REM DATE 1995
REM DISCID D511AB0F
REM COMMENT "ExactAudioCopy v0.99pb4"
PERFORMER "Stan Getz"
TITLE "Jazz & Blues Collection"
FILE "01 - Woody'n You.flac" WAVE TRACK 01 AUDIO TITLE "Woody'n You" PERFORMER "Stan Getz" PREGAP 00:00:32 INDEX 01 00:00:00 TRACK 02 AUDIO TITLE "Yesterdays" PERFORMER "Stan Getz" INDEX 00 05:00:53
FILE "02 - Yesterdays.flac" WAVE INDEX 01 00:00:00 TRACK 03 AUDIO TITLE "The Song Is You" PERFORMER "Stan Getz" INDEX 00 03:58:20
FILE "03 - The Song Is You.flac" WAVE INDEX 01 00:00:00 TRACK 04 AUDIO TITLE "I Only Have Eyes For You" PERFORMER "Stan Getz" INDEX 00 06:03:48
FILE "04 - I Only Have Eyes For You.flac" WAVE INDEX 01 00:00:00 TRACK 05 AUDIO TITLE "Move" PERFORMER "Stan Getz" INDEX 00 03:04:32
FILE "05 - Move.flac" WAVE INDEX 01 00:00:00 TRACK 06 AUDIO TITLE "Long Island Sound" PERFORMER "Stan Getz" INDEX 00 06:17:43
FILE "06 - Long Island Sound.flac" WAVE INDEX 01 00:00:00 TRACK 07 AUDIO TITLE "'Round Midnight" PERFORMER "Stan Getz" INDEX 00 07:42:68
FILE "07 - 'Round Midnight.flac" WAVE INDEX 01 00:00:00 TRACK 08 AUDIO TITLE "Spotlite (Just You And Me)" PERFORMER "Stan Getz" INDEX 00 03:53:58
FILE "08 - Spotlite (Just You And Me).flac" WAVE INDEX 01 00:00:00 TRACK 09 AUDIO TITLE "Yesterdays" PERFORMER "Stan Getz" INDEX 00 06:37:05
FILE "09 - Yesterdays.flac" WAVE INDEX 01 00:00:00 TRACK 10 AUDIO TITLE "Potter's Luck" PERFORMER "Stan Getz" INDEX 00 04:35:33
FILE "10 - Potter's Luck.flac" WAVE INDEX 01 00:00:00 TRACK 11 AUDIO TITLE "I Can't Get Started" PERFORMER "Stan Getz" INDEX 00 05:07:68
FILE "11 - I Can't Get Started.flac" WAVE INDEX 01 00:00:00 TRACK 12 AUDIO TITLE "Parker 51" PERFORMER "Stan Getz" INDEX 00 03:00:49
FILE "12 - Parker 51.flac" WAVE INDEX 01 00:00:00 TRACK 13 AUDIO TITLE "My Old Flame" PERFORMER "Stan Getz" INDEX 00 05:13:22
FILE "13 - My Old Flame.flac" WAVE INDEX 01 00:00:00 TRACK 14 AUDIO TITLE "Move" PERFORMER "Stan Getz" INDEX 00 02:50:40
FILE "14 - Move.flac" WAVE INDEX 01 00:00:00 TRACK 15 AUDIO TITLE "I'll Remember April" PERFORMER "Stan Getz" INDEX 00 05:44:65
FILE "15 - I'll Remember April.flac" WAVE INDEX 01 00:00:00
Приватный:
Нет (DHT включён)
Размер:
286.66 Мб (300,580,344 байт) » файлов: 21
Участники:
0 раздают, 0 качают (0 участников всего)
Внешние участники:
2 раздают, 1 качают (3 участников всего) [ Обновить ]
21:16
89
RSS
Нет комментариев. Ваш будет первым!