Поиск

1979 (1995) Grant Green - Solid {Blue Note CDP 7243 8 33580 2 1}

1979 (1995) Grant Green - Solid {Blue Note CDP 7243 8 33580 2 1}
Стили:
Страна-производитель диска (релиза):
USA
Дата записи диска:
12 июня 1964
Дата издания диска:
1979
Дата переиздания диска:
1995
Издатель (лейбл):
Номер по каталогу:
CDP 7243 8 33580 2 1
Носитель:
CD
Битрейт аудио:
lossless
Аудиокодек:
FLAC (*.flac)
Тип рипа:
tracks+.cue
Время звучания:
47:34
Наличие сканов:
  • да
Релизёр (источник):
_GARRI

Треклист:

1. Minor League [7:05]
2. Ezz-Thetic [10:39]
3. Grant's Tune [6:58]
4. Solid [7:20]
5. The Kicker [6:19]
6. Wives And Lovers [9:02]

Состав:
  • Bob Cranshaw    Bass
  • Michael Cuscuna    Liner Notes
  • Bob Granshaw    Bass
  • Grant Green    Composer, Guitar
  • Joe Henderson    Composer, Sax (Tenor)
  • Elvin Jones    Drums
  • Alfred Lion    Producer
  • James Spaulding    Sax (Alto), Sax (Soprano)
  • McCoy Tyner    Piano
  • Rudy Van Gelder    Engineer

Recorded on June 12, 1964 at the Van Gelder Studio, Englewood Cliffs, New Jersey
Originally issued as BN LT-990, 1979

Exact Audio Copy V0.99 prebeta 4 from 23. January 2008
EAC extraction logfile from 13. February 2009, 10:41
Grant Green / Solid
Used drive : PIONEER DVD-RW DVR-212D Adapter: 1 ID: 0
Read mode : Secure
Utilize accurate stream : Yes
Defeat audio cache : Yes
Make use of C2 pointers : No
Read offset correction : 48
Overread into Lead-In and Lead-Out : No
Fill up missing offset samples with silence : Yes
Delete leading and trailing silent blocks : No
Null samples used in CRC calculations : Yes
Used interface : Native Win32 interface for Win NT & 2000
Gap handling : Appended to previous track
Used output format : User Defined Encoder
Selected bitrate : 192 kBit/s
Quality : High
Add ID3 tag : No
Command line compressor : C:\Program Files\Exact Audio Copy\Flac\flac.exe
Additional command line options : -V -8 -T "artist=%a" -T "title=%t" -T "album=%g" -T "date=%y" -T "tracknumber=%n" -T "genre=%m" %s
TOC of the extracted CD Track | Start | Length | Start sector | End sector --------------------------------------------------------- 1 | 0:00.00 | 7:05.37 | 0 | 31911 2 | 7:05.37 | 10:41.20 | 31912 | 80006 3 | 17:46.57 | 7:01.08 | 80007 | 111589 4 | 24:47.65 | 7:23.25 | 111590 | 144839 5 | 32:11.15 | 6:23.30 | 144840 | 173594 6 | 38:34.45 | 9:00.42 | 173595 | 214136
Track 1 Filename G:\FLAC.unripped\Grant Green\Solid\ 01 - Minor League.wav Pre-gap length 0:00:02.00 Peak level 70.7 % Track quality 100.0 % Test CRC 5F0E1CE7 Copy CRC 5F0E1CE7 Accurately ripped (confidence 4) [F52F6B5D] Copy OK
Track 2 Filename G:\FLAC.unripped\Grant Green\Solid\ 02 - Ezz-thetic.wav Pre-gap length 0:00:01.45 Peak level 69.3 % Track quality 100.0 % Test CRC 3B388673 Copy CRC 3B388673 Accurately ripped (confidence 4) [6B6CE38D] Copy OK
Track 3 Filename G:\FLAC.unripped\Grant Green\Solid\ 03 - Grant's Tune.wav Pre-gap length 0:00:01.30 Peak level 73.3 % Track quality 100.0 % Test CRC D04E0796 Copy CRC D04E0796 Accurately ripped (confidence 4) [894CB22D] Copy OK
Track 4 Filename G:\FLAC.unripped\Grant Green\Solid\ 04 - Solid.wav Pre-gap length 0:00:01.05 Peak level 78.8 % Track quality 100.0 % Test CRC 9F4007B5 Copy CRC 9F4007B5 Accurately ripped (confidence 4) [4E237CAC] Copy OK
Track 5 Filename G:\FLAC.unripped\Grant Green\Solid\ 05 - The Kicker.wav Pre-gap length 0:00:01.48 Peak level 83.4 % Track quality 100.0 % Test CRC 05944868 Copy CRC 05944868 Accurately ripped (confidence 4) [D991410A] Copy OK
Track 6 Filename G:\FLAC.unripped\Grant Green\Solid\ 06 - Wives And Lovers.wav Pre-gap length 0:00:03.13 Peak level 68.1 % Track quality 100.0 % Test CRC 400651E6 Copy CRC 400651E6 Accurately ripped (confidence 4) [7A807BC7] Copy OK
All tracks accurately ripped
No errors occurred
End of status report
REM GENRE Jazz
REM DATE 1964
REM DISCID 500B2706
REM COMMENT "ExactAudioCopy v0.99pb4"
PERFORMER "Grant Green"
TITLE "Solid"
FILE "Grant Green\Solid\ 01 - Minor League.wav" WAVE TRACK 01 AUDIO TITLE "Minor League" PERFORMER "Grant Green" INDEX 01 00:00:00 TRACK 02 AUDIO TITLE "Ezz-thetic" PERFORMER "Grant Green" INDEX 00 07:03:67
FILE "Grant Green\Solid\ 02 - Ezz-thetic.wav" WAVE INDEX 01 00:00:00 TRACK 03 AUDIO TITLE "Grant's Tune" PERFORMER "Grant Green" INDEX 00 10:39:65
FILE "Grant Green\Solid\ 03 - Grant's Tune.wav" WAVE INDEX 01 00:00:00 TRACK 04 AUDIO TITLE "Solid" PERFORMER "Grant Green" INDEX 00 07:00:03
FILE "Grant Green\Solid\ 04 - Solid.wav" WAVE INDEX 01 00:00:00 TRACK 05 AUDIO TITLE "The Kicker" PERFORMER "Grant Green" INDEX 00 07:21:52
FILE "Grant Green\Solid\ 05 - The Kicker.wav" WAVE INDEX 01 00:00:00 TRACK 06 AUDIO TITLE "Wives And Lovers" PERFORMER "Grant Green" INDEX 00 06:20:17
FILE "Grant Green\Solid\ 06 - Wives And Lovers.wav" WAVE INDEX 01 00:00:00
AUDIOCHECKER v2.0 beta (build 457) - by Dester - opdester@freemail.hu
~~~~~~~~~~~~~~~~~~~~~~~~~~~~~~~~~~
-=== DO NOT EDIT THIS FILE! ===-
Path: ...\Grant Green - Solid [1995]
1 -=- 01. Minor League.flac -=- CDDA (100%)
2 -=- 02. Ezz-thetic.flac -=- CDDA (100%)
3 -=- 03. Grant's Tune.flac -=- CDDA (100%)
4 -=- 04. Solid.flac -=- CDDA (100%)
5 -=- 05. The Kicker.flac -=- CDDA (100%)
6 -=- 06. Wives And Lovers.flac -=- CDDA (99%)
Summary 99,83% CDDA
180118068
Приватный:
Нет (DHT включён)
Размер:
300.17 Мб (314,751,350 байт) » файлов: 14
Участники:
0 раздают, 0 качают (0 участников всего)
Внешние участники:
3 раздают, 1 качают (4 участников всего) [ Обновить ]
Скорость:
Торрент не зарегистрирован на трекере
21:39
27
RSS
Нет комментариев. Ваш будет первым!