Поиск

1958 Sarah Vaughan - No Count Sarah (2020) {Verve Reissues} [24-192]

1958 Sarah Vaughan - No Count Sarah (2020) {Verve Reissues} [24-192]
Стили:
Издатель (лейбл):
Битрейт аудио:
lossless
Доп. инфо:

Формат записи/Источник записи: [TR24][OF]
Издание: Remastered
Год издания/переиздания диска: 1958/2020
Продолжительность: 00:35:39
Наличие сканов в содержимом раздачи: Нет

Контейнер: FLAC (*.flac)
Тип рипа: tracks
Разрядность: 24/192
Количество каналов: 2.0

Источник (релизер): HDTracks

Лог проверки качества
foobar2000 1.4.3 / Dynamic Range Meter 1.1.1
log date: 2021-03-06 19:47:23

--------------------------------------------------------------------------------
Analyzed: Sarah Vaughan / No Count Sarah
--------------------------------------------------------------------------------

DR         Peak         RMS     Duration Track
--------------------------------------------------------------------------------
DR9       -0.20 dB   -12.20 dB      4:01 01-Smoke Gets In Your Eyes
DR10      -0.20 dB   -11.65 dB      4:36 02-Doodlin'
DR10      -0.36 dB   -13.92 dB      3:46 03-Darn That Dream
DR9       -0.20 dB   -10.90 dB      2:32 04-Just One Of Those Things
DR10      -0.40 dB   -12.90 dB      3:22 05-Moonlight In Vermont
DR10      -0.20 dB   -13.13 dB      5:30 06-No Count Blues
DR10      -0.20 dB   -11.87 dB      5:11 07-Cheek To Cheek
DR9       -0.20 dB   -11.82 dB      3:19 08-Stardust
DR8       -0.20 dB   -10.44 dB      3:28 09-Missing You
--------------------------------------------------------------------------------

Number of tracks:  9
Official DR value: DR10

Samplerate:        192000 Hz
Channels:          2
Bits per sample:   24
Bitrate:           6178 kbps
Codec:             FLAC
================================================================================
No seeders - write personal message to M0p94ok. Any questions - support@pro-jazz.com.
Нет сидеров - пишите в личку M0p94ok. Есть вопросы - support@pro-jazz.com
23:52
74
Нет комментариев. Ваш будет первым!