Поиск

2021 Thibault - Dandy {iMD-L'Ephémère} [24-44,1]

2021 Thibault - Dandy {iMD-L'Ephémère} [24-44,1]
Стили:
Битрейт аудио:
lossless
Доп. инфо:

• Формат записи | Источник записи: [TR24][OF]
• Наличие водяных знаков: Нет
• Год издания релиза: 2021
• Лейбл: iMD-L'Ephémère
• Продолжительность: 00:30:19
• Источник: internet
• WEB релиз: ссылка
• Контейнер: FLAC (*.flac)
• Тип рипа: tracks
• Разрядность: 24/44,1
• Формат: PCM
• Количество каналов: 2.0
• Наличие сканов: front

Лог проверки качества
foobar2000 1.4.2 / Dynamic Range Meter 1.1.1
log date: 2021-03-21 10:41:32

--------------------------------------------------------------------------------
Analyzed: Thibault / Dandy
--------------------------------------------------------------------------------

DR         Peak         RMS     Duration Track
--------------------------------------------------------------------------------
DR6       -0.10 dB    -7.22 dB      3:00 01-Le dandy
DR6       -0.10 dB    -8.43 dB      3:31 02-Kitty
DR7       -0.10 dB    -7.95 dB      4:29 03-Le plus grand show du monde
DR6       -0.10 dB    -8.17 dB      4:12 04-Paris, annГ©es folles
DR5       -0.10 dB    -7.54 dB      4:21 05-Lindy Hop
DR6       -0.10 dB    -8.21 dB      3:38 06-Le rougarou
DR7       -0.10 dB    -8.52 dB      4:44 07-D'Г©bГЁne et d'ivoire
DR6       -0.10 dB    -7.82 dB      2:25 08-Le dandy  (Instrumental)
--------------------------------------------------------------------------------

Number of tracks:  8
Official DR value: DR6

Samplerate:        44100 Hz
Channels:          2
Bits per sample:   24
Bitrate:           1651 kbps
Codec:             FLAC
================================================================================
No seeders - write personal message to M0p94ok. Any questions - support@pro-jazz.com.
Нет сидеров - пишите в личку M0p94ok. Есть вопросы - support@pro-jazz.com
22:52
69
Нет комментариев. Ваш будет первым!