Поиск

2021 Anton Goudsmit - Ton Petit {Dox} [24-48]

2021 Anton Goudsmit - Ton Petit {Dox} [24-48]
Стили:
Дата записи диска:
11 августа - 12 августа 2020
Место записи:
Warning Studios Amsterdam
Дата издания диска:
19 марта 2021
Битрейт аудио:
lossless
Доп. инфо:

• Формат записи | Источник записи: [TR24][OF]
• Наличие водяных знаков: Нет
• Год издания релиза: 2021
• Лейбл: Dox Records
• Продолжительность: 00:32:03
• Источник: internet
• WEB релиз: ссылка
• Контейнер: FLAC (*.flac)
• Тип рипа: tracks
• Разрядность: 24/48
• Формат: PCM
• Количество каналов: 2.0
• Наличие сканов: front

Лог проверки качества
foobar2000 1.4.2 / Dynamic Range Meter 1.1.1
log date: 2021-03-21 09:59:11

--------------------------------------------------------------------------------
Analyzed: Anton Goudsmit / Ton Petit
--------------------------------------------------------------------------------

DR         Peak         RMS     Duration Track
--------------------------------------------------------------------------------
DR9       -0.50 dB   -10.80 dB      5:56 01-Graat/Paling
DR8       -0.50 dB    -9.59 dB      7:14 02-el Hugonote/Franje
DR9       -0.50 dB   -12.09 dB      4:41 03-Calme
DR7       -0.50 dB    -8.92 dB      1:51 04-The Fridge
DR9       -0.50 dB   -12.39 dB      7:00 05-Desbarato/Karma-tic
DR6       -0.50 dB    -8.69 dB      5:21 06-Mont Blues
--------------------------------------------------------------------------------

Number of tracks:  6
Official DR value: DR8

Samplerate:        48000 Hz
Channels:          2
Bits per sample:   24
Bitrate:           1725 kbps
Codec:             FLAC
================================================================================
No seeders - write personal message to M0p94ok. Any questions - support@pro-jazz.com.
Нет сидеров - пишите в личку M0p94ok. Есть вопросы - support@pro-jazz.com
22:03
74
Нет комментариев. Ваш будет первым!