Поиск

2021 Moon - Chromatic Paradise {Universal Music} [24-48]

2021 Moon - Chromatic Paradise {Universal Music} [24-48]
Стили:
Издатель (лейбл):
Битрейт аудио:
lossless
Доп. инфо:

• Формат записи | Источник записи: [TR24][OF]
• Наличие водяных знаков: Нет
• Год издания релиза: 2021
• Продолжительность: 00:41:30
• Источник: internet
• WEB релиз: ссылка
• Контейнер: FLAC (*.flac)
• Тип рипа: tracks
• Разрядность: 24/48
• Формат: PCM
• Количество каналов: 2.0
• Наличие сканов: front

Лог проверки качества
foobar2000 1.4.2 / Dynamic Range Meter 1.1.1
log date: 2021-03-21 07:57:47

--------------------------------------------------------------------------------
Analyzed: Moon / Chromatic Paradise
--------------------------------------------------------------------------------

DR         Peak         RMS     Duration Track
--------------------------------------------------------------------------------
DR10      -0.30 dB   -12.54 dB      3:16 01-Upon The Sky
DR10      -0.30 dB   -13.97 dB      4:23 02-Let It Flow
DR10      -0.30 dB   -11.92 dB      3:43 03-You Know It
DR10      -0.21 dB   -12.01 dB      4:35 04-Stay
DR8       -0.30 dB   -10.56 dB      4:12 05-With You
DR8       -0.30 dB   -10.25 dB      4:39 06-Beautiful World
DR10      -0.30 dB   -13.07 dB      4:26 07-Paradise
DR9       -0.30 dB   -11.01 dB      4:33 08-Part Time Dreamer
DR10      -0.30 dB   -12.95 dB      3:36 09-The Wander
DR11      -0.30 dB   -13.39 dB      4:08 10-Spring Snow
--------------------------------------------------------------------------------

Number of tracks:  10
Official DR value: DR10

Samplerate:        48000 Hz
Channels:          2
Bits per sample:   24
Bitrate:           1547 kbps
Codec:             FLAC
================================================================================
No seeders - write personal message to M0p94ok. Any questions - support@pro-jazz.com.
Нет сидеров - пишите в личку M0p94ok. Есть вопросы - support@pro-jazz.com
21:06
72
Нет комментариев. Ваш будет первым!