Поиск

1998 Georges Arvanitas - Rencontre {SME} [DSD64 ISO]

1998 Georges Arvanitas - Rencontre {SME} [DSD64 ISO]
Дата издания диска:
13 июля 1998
Битрейт аудио:
lossless
Доп. инфо:

Формат записи/Источник записи: [SACD-R][OF]
Наличие водяных знаков: Нет
Издатель (лейбл): SME Records - [SRGS4507]
Продолжительность: 00:58:28
Наличие сканов в содержимом раздачи: Только обложка альбома

Контейнер: ISO (*.iso)
Тип рипа: image
Разрядность: 64 (2,8 MHz/1 Bit)
Формат: DSD
Количество каналов: 2.0

Доп. информация: sa-cd.net
Recorded to DSD.
Источник (релизер): jazzy pic

Лог проверки качества
foobar2000 1.6.4 / Dynamic Range Meter 1.1.1
log date: 2021-03-20 20:50:53

--------------------------------------------------------------------------------
Analyzed: Georges Arvanitas / Rencontre
--------------------------------------------------------------------------------

DR         Peak         RMS     Duration Track
--------------------------------------------------------------------------------
DR16      -3.24 dB   -22.35 dB      6:11 01-Footprints
DR17      -3.17 dB   -21.76 dB      6:22 02-Dear Old Stockholm
DR13      -8.32 dB   -25.13 dB      4:10 03-Very Early
DR17      -3.06 dB   -23.31 dB      5:58 04-Fables Of Faubus
DR15      -3.82 dB   -21.55 dB      4:10 05-Off Minor
DR13      -8.98 dB   -26.94 dB      4:33 06-Come Sunday
DR16      -3.23 dB   -21.83 dB      4:45 07-Bolivia
DR13      -8.14 dB   -23.67 dB      5:01 08-East Of The Sun
DR12      -5.73 dB   -23.45 dB      4:18 09-Goodbye Pork Pie Hat
DR18      -2.14 dB   -23.17 dB      4:56 10-Dug's Blues
DR13      -7.41 dB   -24.92 dB      3:57 11-Nuages
DR12      -9.67 dB   -27.15 dB      4:08 12-In A Sentimental Mood
--------------------------------------------------------------------------------

Number of tracks:  12
Official DR value: DR15

Samplerate:        2822400 Hz / PCM Samplerate: 88200 Hz
Channels:          2
Bits per sample:   1
Bitrate:           5645 kbps
Codec:             DSD64
================================================================================
No seeders - write personal message to M0p94ok. Any questions - support@pro-jazz.com.
Нет сидеров - пишите в личку M0p94ok. Есть вопросы - support@pro-jazz.com
00:18
96
Нет комментариев. Ваш будет первым!