Поиск

2009 Phil Woods Quintet - Ballads & Blues (2014) {Venus} [DSD64 ISO]

2009 Phil Woods Quintet - Ballads & Blues (2014) {Venus} [DSD64 ISO]
Стили:
Дата записи диска:
20 июня - 21 июня 2008
Место записи:
Avatar Studios, New York City, NY, USA
Издатель (лейбл):
Номер по каталогу:
VHGD-26
Битрейт аудио:
lossless
Доп. инфо:

Формат записи/Источник записи: [SACD-R][OF]
Наличие водяных знаков: Нет
Год издания/переиздания диска: 2009/2014
Продолжительность: 01:02:19

Контейнер: ISO (*.iso)
Тип рипа: image
Разрядность: 64(2,8 MHz/1 Bit)
Формат: DSD
Количество каналов: 2.0

Доп. информация: venusrecords
Источник (релизер): jazzy pic

Лог проверки качества
foobar2000 1.6.4 / Dynamic Range Meter 1.1.1
log date: 2021-03-20 14:31:05

--------------------------------------------------------------------------------
Analyzed: Phil Woods Quintet / BALLADS & BLUES
--------------------------------------------------------------------------------

DR         Peak         RMS     Duration Track
--------------------------------------------------------------------------------
DR7       -4.54 dB   -12.62 dB      4:09 01-Blood Count
DR6       -4.26 dB   -13.16 dB      4:59 02-Flower Is A Lovesome Thing
DR7       -5.07 dB   -13.61 dB      4:02 03-Balcony Serenade
DR6       -5.17 dB   -13.60 dB      4:13 04-Isfahan
DR7       -4.33 dB   -13.77 dB      7:53 05-Ballad Medley - I Didn't Know About You - Lotus Blossom - Don't You Know I Care
DR7       -4.69 dB   -13.18 dB      8:31 06-How Little We Know
DR6       -5.15 dB   -13.53 dB      4:58 07-Ballad For Very Tired And Very Sad Lotus Eaters
DR10      -5.25 dB   -19.44 dB      3:52 08-Lush Life
DR8       -4.42 dB   -13.42 dB      4:10 09-My Little Brown Book
DR7       -4.53 dB   -13.41 dB      4:58 10-Rain Check
DR8       -3.58 dB   -13.48 dB      5:07 11-Jonny Come Lately
DR7       -4.46 dB   -13.02 dB      5:29 12-Take The A Train
--------------------------------------------------------------------------------

Number of tracks:  12
Official DR value: DR7

Samplerate:        2822400 Hz / PCM Samplerate: 88200 Hz
Channels:          2
Bits per sample:   1
Bitrate:           5645 kbps
Codec:             DSD64
================================================================================
No seeders - write personal message to M0p94ok. Any questions - support@pro-jazz.com.
Нет сидеров - пишите в личку M0p94ok. Есть вопросы - support@pro-jazz.com
19:38
99
Нет комментариев. Ваш будет первым!