Поиск

2020 Carmen Gomes Inc. - Up Jumped The Devil {Sound Liaison} [DSD128]

2020 Carmen Gomes Inc. - Up Jumped The Devil {Sound Liaison} [DSD128]
Стили:
Битрейт аудио:
lossless
Доп. инфо:

Формат записи/Источник записи: [DSD][OF]
Наличие водяных знаков: Нет
Год издания/переиздания диска: 2020
Издатель (лейбл): Sound Liaison
Продолжительность: 00:45:26
Наличие сканов в содержимом раздачи: Буклет PDF

Контейнер: DSF (*.dsf)
Тип рипа: tracks
Разрядность: 128(5,6 MHz/1 Bit)
Формат: DSD128
Количество каналов: 2.0

Доп. информация: Original Recording Format: DXD
Источник (релизер): WEB Thanks to original customer.
https://www.soundliaison.com/index.php/677-up-jumped-the-devil-carmen-gomes-inc
https://www.nativedsd.com/catalogue/campaigns/carmen-gomes-campaign/sl1043a-up-jumped-the-devil/

Лог проверки качества
foobar2000 1.3.13 / Замер динамического диапазона (DR) 1.1.1
Дата отчёта:  2021-03-20 13:19:16

--------------------------------------------------------------------------------
Анализ:   Carmen Gomes Inc. / Up Jumped The Devil
--------------------------------------------------------------------------------

DR         Пики         RMS           Продолжительность трека
--------------------------------------------------------------------------------
DR16      -8.93 дБ   -32.31 дБ      1:20 01-Tunica
DR14      -5.81 дБ   -23.76 дБ      5:06 02-Hellhound On My Trail
DR16     -12.33 дБ   -33.32 дБ      0:44 03-Rosedale
DR13      -5.62 дБ   -21.02 дБ      5:31 04-Up Jumped The Devil
DR12     -15.99 дБ   -31.51 дБ      0:49 05-Dark Corner Cemetery
DR14      -5.87 дБ   -23.39 дБ      4:46 06-Come On In My Kitchen
DR12     -13.63 дБ   -31.13 дБ      0:46 07-Penton
DR14      -5.54 дБ   -22.11 дБ      6:20 08-When You Got A Good Friend
DR11     -17.20 дБ   -32.03 дБ      0:38 09-Robinsonville
DR14      -6.13 дБ   -23.96 дБ      4:30 10-Ease The Pain
DR17     -12.40 дБ   -33.55 дБ      0:52 11-Hazlehurst
DR13     -10.15 дБ   -27.22 дБ      5:48 12-Love In Vain
DR19      -5.83 дБ   -30.70 дБ      2:03 13-Clarksdale 61-49
DR13      -5.68 дБ   -20.54 дБ      4:08 14-Stop Breaking Down
DR14     -12.87 дБ   -32.68 дБ      2:03 15-Martinsville
--------------------------------------------------------------------------------

Количество треков: 15
Реальные значения DR: DR14

Частота:   5644800 Гц / Частота PCM: 352800 Гц
Каналов:   2
Разрядность:   24
Битрейт:   11290 кбит/с
Кодек:   DSD128
================================================================================
No seeders - write personal message to M0p94ok. Any questions - support@pro-jazz.com.
Нет сидеров - пишите в личку M0p94ok. Есть вопросы - support@pro-jazz.com
19:22
75
Нет комментариев. Ваш будет первым!