Вы используете незарегистрированную версию компонента "Вкладки"!

Поиск

2008 Hiromi - Hiromi's Sonicbloom: Beyond Standard (2021) {Telarc} [24-192]

2008 Hiromi - Hiromi's Sonicbloom: Beyond Standard (2021) {Telarc} [24-192]
Стили:
Издатель (лейбл):
Битрейт аудио:
lossless
Доп. инфо:

Формат записи/Источник записи: [TR24][OF]
Наличие водяных знаков: Нет
Год издания: 2021
Продолжительность: 00:59:30
Наличие сканов в содержимом раздачи: Только обложка альбома
Контейнер: FLAC (*.flac)
Тип рипа: tracks
Разрядность: 24/192
Формат: PCM
Количество каналов: 2.0
Источник (релизер): prestomusic.com

Лог проверки качества
foobar2000 1.4.8 / Dynamic Range Meter 1.1.1
log date: 2021-03-20 11:10:16

--------------------------------------------------------------------------------
Analyzed: Hiromi / Hiromi's Sonicbloom: Beyond Standard
--------------------------------------------------------------------------------

DR         Peak         RMS     Duration Track
--------------------------------------------------------------------------------
DR16      -7.45 dB   -25.07 dB      0:31 01-Intro: Softly As In A Morning Sunrise
DR13      -0.95 dB   -16.92 dB      7:30 02-Softly As In A Morning Sunrise
DR13      -0.89 dB   -16.41 dB      7:25 03-Clair De Lune
DR15      -0.20 dB   -17.38 dB      8:49 04-Caravan
DR14      -0.60 dB   -17.31 dB      8:43 05-Ue Wo Muite Aruko
DR14      -0.51 dB   -16.74 dB      7:48 06-My Favorite Things
DR13      -0.33 dB   -15.36 dB      6:34 07-Led Boots
DR12      -0.20 dB   -14.35 dB      6:32 08-XYG
DR15      -0.63 dB   -19.91 dB      5:51 09-I've Got Rhythm
--------------------------------------------------------------------------------

Number of tracks:  9
Official DR value: DR14
Samplerate:        192000 Hz
Channels:          2
Bits per sample:   24
Bitrate:           6946 kbps
Codec:             FLAC
================================================================================
Any questions - support@pro-jazz.com. Есть вопросы - support@pro-jazz.com
18:50
82
Нет комментариев. Ваш будет первым!