Вы используете незарегистрированную версию компонента "Вкладки"!

Поиск

2011 Christian McBride Big Band - The Good Feeling {Mack Avenue} [24-96]

2011 Christian McBride Big Band - The Good Feeling {Mack Avenue} [24-96]
Место записи:
Avatar Studios, New York City, NY, USA
Дата издания диска:
27 ноября 2011
Издатель (лейбл):
Битрейт аудио:
lossless
Доп. инфо:

Формат записи/Источник записи: [TR24][OF]
Год издания/переиздания диска: 2011
Продолжительность: 01:10:25
Наличие сканов в содержимом раздачи: Нет

Контейнер: FLAC (*.flac)
Тип рипа: tracks
Разрядность: 24/96
Количество каналов: 2.0

Источник (релизер): HDTracks

Лог проверки качества
foobar2000 1.4 / Dynamic Range Meter 1.1.1
log date: 2021-02-01 19:20:46

--------------------------------------------------------------------------------
Analyzed: Christian McBride Big Band / The Good Feeling
--------------------------------------------------------------------------------

DR         Peak         RMS     Duration Track
--------------------------------------------------------------------------------
DR16      -0.02 dB   -21.55 dB      7:22 01-Shake 'n Blake
DR17      -0.40 dB   -22.15 dB      4:05 02-Broadway
DR14       0.00 dB   -17.08 dB      4:54 03-Brother Mister
DR15      -1.89 dB   -23.77 dB      5:18 04-When I Fall in Love
DR16       0.00 dB   -19.49 dB     11:46 05-Science Fiction
DR15       0.00 dB   -17.35 dB      8:18 06-The Shade of the Cedar Tree
DR13       0.00 dB   -17.78 dB      3:49 07-The More I See You
DR17       0.00 dB   -20.90 dB      5:45 08-I Should Care
DR13       0.00 dB   -16.92 dB      3:29 09-A Taste of Honey
DR16      -0.01 dB   -21.39 dB      8:45 10-Bluesin' in Alphabet City
DR15       0.00 dB   -18.63 dB      6:59 11-In a Hurry
--------------------------------------------------------------------------------

Number of tracks:  11
Official DR value: DR15

Samplerate:        96000 Hz
Channels:          2
Bits per sample:   24
Bitrate:           2693 kbps
Codec:             FLAC
================================================================================
Any questions - support@pro-jazz.com. Есть вопросы - support@pro-jazz.com
18:44
99
Нет комментариев. Ваш будет первым!