Поиск

2021 The Four Sounds - Jazz from District Six {Branditmusic} [24-44.1]

2021 The Four Sounds - Jazz from District Six {Branditmusic} [24-44.1]
Стили:
Дата издания диска:
20 марта 2021
Битрейт аудио:
lossless
Доп. инфо:

• Формат записи | Источник записи: [TR24][OF]
• Наличие водяных знаков: Нет
• Год издания релиза: 2021
• Лейбл: Branditmusic
• Продолжительность: 00:31:10
• Источник: internet
• WEB релиз: ссылка
• Контейнер: FLAC (*.flac)
• Тип рипа: tracks
• Разрядность: 24/44,1
• Формат: PCM
• Количество каналов: 2.0
• Наличие сканов: front

Лог проверки качества
foobar2000 1.4.2 / Dynamic Range Meter 1.1.1
log date: 2021-03-21 11:29:13

--------------------------------------------------------------------------------
Analyzed: The Four Sounds / Jazz from District Six
--------------------------------------------------------------------------------

DR         Peak         RMS     Duration Track
--------------------------------------------------------------------------------
DR11      -0.02 dB   -15.65 dB      6:31 01-Seven Steps Lament
DR10      -0.76 dB   -14.72 dB      5:05 02-Interim
DR7       -1.34 dB   -11.99 dB      3:14 03-Beautiful Katrina
DR10      -1.13 dB   -15.73 dB      7:10 04-Up from Slavery
DR10      -2.11 dB   -14.15 dB      4:52 05-Wells Square Theme
DR8       -1.97 dB   -12.01 dB      1:50 06-Don’t Close Your Eyes
DR9       -0.04 dB   -12.24 dB      2:29 07-The “Goema” Dance
--------------------------------------------------------------------------------

Number of tracks:  7
Official DR value: DR9

Samplerate:        44100 Hz
Channels:          2
Bits per sample:   24
Bitrate:           1496 kbps
Codec:             FLAC
================================================================================
No seeders - write personal message to M0p94ok. Any questions - support@pro-jazz.com.
Нет сидеров - пишите в личку M0p94ok. Есть вопросы - support@pro-jazz.com
14:52
66
Нет комментариев. Ваш будет первым!