Поиск

2021 Maria Emrik - Close Your Eyes {Ali Production} [24-96]

2021 Maria Emrik - Close Your Eyes {Ali Production} [24-96]
Стили:
Битрейт аудио:
lossless
Доп. инфо:

• Формат записи | Источник записи: [TR24][OF]
• Наличие водяных знаков: Нет
• Год издания релиза: 2021
• Лейбл: Ali Production
• Продолжительность: 00:43:42
• Источник: internet
• WEB релиз: ссылка
• Контейнер: FLAC (*.flac)
• Тип рипа: tracks
• Разрядность: 24/96
• Формат: PCM
• Количество каналов: 2.0
• Наличие сканов: front

Лог проверки качества
foobar2000 1.4.2 / Dynamic Range Meter 1.1.1
log date: 2021-03-21 14:22:50

--------------------------------------------------------------------------------
Analyzed: Maria Emrik / Close Your Eyes
--------------------------------------------------------------------------------

DR         Peak         RMS     Duration Track
--------------------------------------------------------------------------------
DR9       -0.59 dB   -12.69 dB      4:38 01-Willow Weep for Me
DR10      -1.10 dB   -12.99 dB      3:21 02-I'm a Fool to Want You
DR11      -0.32 dB   -13.14 dB      3:25 03-Close Your Eyes
DR10      -0.32 dB   -13.11 dB      4:50 04-You Don't Know What Love Is
DR11      -0.33 dB   -12.97 dB      4:13 05-The Touch of Your Lips
DR11      -0.32 dB   -13.15 dB      2:57 06-Can Anyone Explain
DR11      -0.35 dB   -13.43 dB      5:12 07-Our Love is Here to Stay
DR11      -0.32 dB   -13.54 dB      3:41 08-Bye Bye Blackbird
DR9       -0.56 dB   -13.36 dB      3:00 09-The Thrill is Gone
DR10      -0.60 dB   -12.42 dB      5:12 10-Wild is the Wind
DR11      -1.43 dB   -15.22 dB      3:13 11-I Get Along Without You Very Well
--------------------------------------------------------------------------------

Number of tracks:  11
Official DR value: DR10

Samplerate:        96000 Hz
Channels:          2
Bits per sample:   24
Bitrate:           2543 kbps
Codec:             FLAC
================================================================================
No seeders - write personal message to M0p94ok. Any questions - support@pro-jazz.com.
Нет сидеров - пишите в личку M0p94ok. Есть вопросы - support@pro-jazz.com
14:57
68
Нет комментариев. Ваш будет первым!