Вы используете незарегистрированную версию компонента "Вкладки"!

Поиск

1964 Al Hibbler & The Roland Hanna Trio - Early One Morning (2020) {LMI} [24-96]

1964 Al Hibbler & The Roland Hanna Trio - Early One Morning (2020) {LMI} [24-96]
Стили:
Дата издания диска:
15 июля 1964
Дата переиздания диска:
21 октября 2020
Битрейт аудио:
lossless
Доп. инфо:

Формат записи/Источник записи: [TR24][OF]
Издание: Remastered
Год издания/переиздания диска: 1964/2020
Издатель (лейбл): LMI
Продолжительность: 00:36:35
Наличие сканов в содержимом раздачи: Нет

Контейнер: FLAC (*.flac)
Тип рипа: tracks
Разрядность: 24/96
Количество каналов: 2.0

Источник (релизер): bandcamp

Лог проверки качества
foobar2000 1.4.3 / Dynamic Range Meter 1.1.1
log date: 2021-03-19 22:08:44

--------------------------------------------------------------------------------
Analyzed: Al Hibbler / Early One Morning
--------------------------------------------------------------------------------

DR         Peak         RMS     Duration Track
--------------------------------------------------------------------------------
DR11      -1.03 dB   -14.56 dB      2:35 01-Believe it Beloved
DR10      -1.12 dB   -13.43 dB      3:05 02-Dedicated to You
DR11      -0.50 dB   -14.80 dB      2:56 03-Blues for the Weepers
DR11      -1.25 dB   -15.32 dB      4:21 04-I'm Just a Lucky So and So
DR11      -1.83 dB   -14.65 dB      4:26 05-Early One Morning (Prison Bound Blues)
DR10      -0.58 dB   -13.60 dB      2:46 06-Lover, Come Back to Me
DR13      -1.51 dB   -17.52 dB      2:50 07-You'd Be So Nice to Come Home To
DR10      -4.99 dB   -18.71 dB      3:44 08-The Very Thought of You
DR11      -1.25 dB   -14.58 dB      4:48 09-It Shouldn't Happen to a Dream
DR12      -0.69 dB   -14.29 dB      2:19 10-I'm Gonna Sit Right Down and Write Myself a Letter
DR12       0.00 dB   -13.99 dB      2:49 11-I Can't Put My Arms Around a Memory
--------------------------------------------------------------------------------

Number of tracks:  11
Official DR value: DR11

Samplerate:        96000 Hz
Channels:          2
Bits per sample:   24
Bitrate:           2437 kbps
Codec:             FLAC
================================================================================
Any questions - support@pro-jazz.com. Есть вопросы - support@pro-jazz.com
15:04
87
Нет комментариев. Ваш будет первым!