Поиск

1958 Roy Haynes, Phineas Newborn, Paul Chambers - We Three (2014) {Prestige} [24-44.1]

1958 Roy Haynes, Phineas Newborn, Paul Chambers - We Three (2014) {Prestige} [24-44.1]
Стили:
Место записи:
Rudy Van Gelder Studio, Englewood Cliffs, New Jersey, USA
Дата издания диска:
14 ноября 1958
Издатель (лейбл):
Носитель:
WEB
Формат:
PCM
Тип рипа:
tracks
Контейнер:
FLAC (*.flac)
Количество каналов:
2.0
Разрядность/ЧД:
24/44,1
Битрейт аудио:
lossless
Наличие сканов:
только обложка

This album is available on our hub: dc.pro-jazz.com
Этот альбом доступен на нашем хабе: dc.pro-jazz.com

Состав:
  • Paul Chambers     Bass, Guitar (Bass)
  • Phineas Newborn, Jr.     Composer, Piano
  • Joe Tarantino     Digital Remastering
  • Roy Haynes     Drums
  • Rudy Van Gelder     Engineer, Liner Notes, Remastering
  • Ira Gitler     Liner Notes
  • Chris Clough     Reissue Producer, Reissue Production Assistance
  • Stuart Kremsky     Reissue Producer, Reissue Production Assistance
  • Nick Phillips     Reissue Producer
  • Bob Porter     Reissue Producer
Лог проверки качества
foobar2000 1.4.3 / Dynamic Range Meter 1.1.1
log date: 2022-07-27 16:44:12
--------------------------------------------------------------------------------
Analyzed: Roy Haynes / We Three
--------------------------------------------------------------------------------
DR         Peak         RMS     Duration Track
--------------------------------------------------------------------------------
DR11       0.00 dB   -13.25 dB      4:25 01-Reflection (Album Version)
DR12      -0.05 dB   -13.73 dB      6:26 02-Sugar Ray (Album Version)
DR12      -0.25 dB   -15.38 dB      8:54 03-Solitaire (Album Version)
DR12      -0.18 dB   -14.41 dB     11:21 04-After Hours (Album Version)
DR12      -0.18 dB   -13.86 dB      4:25 05-Sneakin' Around (Album Version)
DR12      -0.05 dB   -13.47 dB      4:02 06-Our Delight (Album Version)
--------------------------------------------------------------------------------
Number of tracks:  6
Official DR value: DR12
Samplerate:        44100 Hz
Channels:          2
Bits per sample:   24
Bitrate:           1691 kbps
Codec:             FLAC
================================================================================
21:13
324
Нет комментариев. Ваш будет первым!