Поиск

1977 Bill Badgley - Gonna Fly Now {Audio Fidelity} [24-96]

1977 Bill Badgley - Gonna Fly Now {Audio Fidelity} [24-96]
Дата издания диска:
3 января 1977
Издатель (лейбл):
Носитель:
WEB
Формат:
PCM
Тип рипа:
tracks
Контейнер:
FLAC (*.flac)
Количество каналов:
2.0
Разрядность/ЧД:
24/96
Битрейт аудио:
lossless
Наличие сканов:
только обложка

This album is available on our hub: dc.pro-jazz.com
Этот альбом доступен на нашем хабе: dc.pro-jazz.com

Состав:
  •     Arranged By, Conductor, Producer – Jim Pirie
  •     Bass Guitar – Tom Szczesniak
  •     Cello – Peter Schenkman (2), Richard Armin
  •     Drums – Brian Leonard, Dave Brown (14)
  •     Engineer [Engineering Assistant] – John Nalsen
  •     Engineer, Mixed By – Haywood Parrott*
  •     Executive-Producer – Mal Thompson
  •     Guitar – Bobby Edwards (2)
  •     Harp – Erica Goodman
  •     Keyboards – Bill Badgley
  •     Music Consultant [Repertoire Consultant] – Arthur Collins (2)
  •     Percussion – Marty Morell
  •     Trombone – Bob Livingston, Gerry Johnson*
  •     Trumpet – Arnie Chycoski, Erich Traugott
  •     Viola – Jack Neilson, Walter Babiak
  •     Violin – Albert Pratz, Andy Benac*, Barbara McDougall, Beauna Neilson, Bill Richards, Denise Cojocariv, Pearl Palmason, Vicki Richards, Winston Webber
  •     Vocals – Diane Pirie, Judy Tate, Patti Black
  •     Woodwind – Bernie Piltch, Eugene Amaro, Jack Zaza
Лог проверки качества
foobar2000 1.6.16 / Dynamic Range Meter 1.1.1
log date: 2023-05-19 20:52:53

--------------------------------------------------------------------------------
Analyzed: Bill Badgley / Gonna Fly Now
--------------------------------------------------------------------------------

DR         Peak         RMS     Duration Track
--------------------------------------------------------------------------------
DR12      -1.21 dB   -17.99 dB      3:28 01-Gonna Fly Now (Theme from Rocky)
DR14      -1.23 dB   -18.92 dB      3:01 02-Nadia's Theme
DR13      -2.21 dB   -16.87 dB      2:11 03-Mesclado
DR14      -1.27 dB   -18.29 dB      3:40 04-Fernando
DR14      -1.21 dB   -19.85 dB      2:35 05-Aubrey
DR13      -1.22 dB   -15.45 dB      3:10 06-If You Leave Me Now
DR14      -1.23 dB   -17.46 dB      3:05 07-Amanda
DR13      -1.21 dB   -17.75 dB      3:07 08-After the Lovin'
DR12      -1.22 dB   -17.38 dB      3:23 09-Sam
DR13      -3.44 dB   -19.44 dB      4:56 10-Piano Sonata No.14, Op.27 No.2 "Moonlight Sonata"
--------------------------------------------------------------------------------

Number of tracks:  10
Official DR value: DR13

Samplerate:        96000 Hz
Channels:          2
Bits per sample:   24
Bitrate:           2407 kbps
Codec:             FLAC
================================================================================
20:53
361
Нет комментариев. Ваш будет первым!