Поиск

2022 Tchavolo Schmitt - Miri Chterna {Mambo} [24-88.2]

2022 Tchavolo Schmitt - Miri Chterna {Mambo} [24-88.2]
Дата издания диска:
17 июня 2022
Носитель:
WEB
Формат:
PCM
Тип рипа:
tracks
Контейнер:
FLAC (*.flac)
Количество каналов:
2.0
Разрядность/ЧД:
24/88,2
Битрейт аудио:
lossless
Наличие сканов:
только обложка

This album is available on our hub: dc.pro-jazz.com
Этот альбом доступен на нашем хабе: dc.pro-jazz.com

Состав:
  • Clarinet – César Poirier (tracks: 5, 8)
  • Contrabass – Edouard Pennes
  • Guitar – Tchavolo Schmitt
  • Liner Notes – Edouard Pennes, Sébastian Vidal
  • Piano – Bastien Brison (tracks: 7)
  • Rhythm Guitar – Julien Cattiaux
  • Violin – Khoa-Nam Nguyen (tracks: 2), Thomas Deschamps (tracks: 2)
  • Violin [Violon Alto] – Issey Nadaud (tracks: 2)
  • Violoncello – Alexis Derouin (tracks: 2)

    Recorded At – Studios Ferber
    Mixed At – Studio De Meudon
    Mastered At – Translab

Лог проверки качества
foobar2000 1.4.2 / Dynamic Range Meter 1.1.1
log date: 2022-06-18 09:05:06
--------------------------------------------------------------------------------
Analyzed: Tchavolo Schmitt / Miri Chterna
--------------------------------------------------------------------------------
DR         Peak         RMS     Duration Track
--------------------------------------------------------------------------------
DR9       -1.00 dB   -12.52 dB      4:59 01-Seul ce soir
DR9       -1.00 dB   -11.22 dB      2:54 02-J'attendrai
DR9       -1.00 dB   -11.07 dB      2:56 03-Coucou
DR10      -0.83 dB   -13.92 dB      4:32 04-Le soir
DR8       -1.00 dB   -10.78 dB      3:39 05-It Had to Be You
DR8       -0.77 dB   -10.65 dB      3:36 06-Tchavolo Blues
DR9       -0.95 dB   -13.01 dB      4:48 07-September Song
DR8       -1.00 dB   -10.96 dB      3:45 08-Billet doux
DR8       -0.81 dB   -11.04 dB      3:23 09-Sheik of Araby
--------------------------------------------------------------------------------
Number of tracks:  9
Official DR value: DR9
Samplerate:        88200 Hz
Channels:          2
Bits per sample:   24
Bitrate:           2886 kbps
Codec:             FLAC
================================================================================
20:40
387
Нет комментариев. Ваш будет первым!