Вы используете незарегистрированную версию компонента "Вкладки"!

Поиск

1958 Helen Merrill - The Nearness Of You {RevOla} [24-44,1]

1958 Helen Merrill - The Nearness Of You {RevOla} [24-44,1]
Стили:
Издатель (лейбл):
Битрейт аудио:
lossless
Доп. инфо:

Формат записи/Источник записи: [TR24][OF]
Издание: Remastered
Год издания/переиздания диска: 1958/2019
Издатель (лейбл): RevOla
Продолжительность: 00:37:17
Наличие сканов в содержимом раздачи: Нет

Контейнер: FLAC (*.flac)
Тип рипа: tracks
Разрядность: 24/44,1
Количество каналов: 2.0

Источник (релизер): Qobuz

Лог проверки качества
foobar2000 1.4.3 / Dynamic Range Meter 1.1.1
log date: 2020-05-11 10:49:15

--------------------------------------------------------------------------------
Analyzed: Helen Merrill / The Nearness of You
--------------------------------------------------------------------------------

DR         Peak         RMS     Duration Track
--------------------------------------------------------------------------------
DR11      -4.89 dB   -19.11 dB      2:57 01-Bye Bye Blackbird (Remastered)
DR10      -6.67 dB   -19.72 dB      4:49 02-When The Sun Comes Out (Remastered)
DR10      -3.30 dB   -18.44 dB      2:11 03-I Remember You (Remastered)
DR11      -5.27 dB   -19.65 dB      3:21 04-Softly As In A Morning Sunrise (Remastered)
DR12      -4.96 dB   -18.94 dB      2:07 05-Dearly Beloved (Remastered)
DR11      -6.74 dB   -22.01 dB      3:28 06-Summertime (Remastered)
DR11      -5.63 dB   -19.45 dB      3:34 07-All Of You (Remastered)
DR9       -6.28 dB   -19.56 dB      2:41 08-I See Your Face Before Me (Remastered)
DR9       -7.00 dB   -20.94 dB      4:05 10-The Nearness Of You (Remastered)
DR11      -4.22 dB   -19.68 dB      2:21 11-This Time The Dream's On Me (Remastered)
DR12      -5.16 dB   -20.32 dB      3:23 12-Just Imagine (Remastered)
DR11      -5.22 dB   -20.05 dB      2:50 14-Let Me Love You (Remastered)
--------------------------------------------------------------------------------

Number of tracks:  12
Official DR value: DR11

Samplerate:        44100 Hz
Channels:          2
Bits per sample:   24
Bitrate:           1166 kbps
Codec:             FLAC
================================================================================
Any questions - support@pro-jazz.com. Есть вопросы - support@pro-jazz.com
22:30
267
Нет комментариев. Ваш будет первым!