Вы используете незарегистрированную версию компонента "Вкладки"!

Поиск

1980 Teddy Wilson Trio - Revisits The Goodman Years (2020) {Storyville} [24-96]

1980 Teddy Wilson Trio - Revisits The Goodman Years (2020) {Storyville} [24-96]
Издатель (лейбл):
Битрейт аудио:
lossless
Доп. инфо:

Формат записи/Источник записи: [TR24][OF]
Издание: Remastered
Год издания/переиздания диска: 1980/2020
Продолжительность: 00:39:47
Наличие сканов в содержимом раздачи: Нет
Контейнер: FLAC (*.flac)
Тип рипа: tracks
Разрядность: 24/96
Количество каналов: 2.0

Источник (релизер): Qobuz

Лог проверки качества
foobar2000 1.4.3 / Dynamic Range Meter 1.1.1
log date: 2020-05-17 20:18:54

--------------------------------------------------------------------------------
Analyzed: Teddy Wilson Trio / Revisits The Goodman Years (Remastered)
--------------------------------------------------------------------------------

DR         Peak         RMS     Duration Track
--------------------------------------------------------------------------------
DR13       0.00 dB   -16.56 dB      3:02 01-S'Wonderful
DR12      -0.25 dB   -16.70 dB      3:00 02-Someday Sweetheart
DR12      -1.15 dB   -16.93 dB      3:16 03-Sheik of Araby
DR13      -3.05 dB   -19.70 dB      2:59 04-More Than You know
DR13      -2.32 dB   -18.45 dB      3:41 05-Nobody's Sweetheart
DR13      -2.59 dB   -19.10 dB      4:13 06-Rose Room
DR13      -1.05 dB   -17.80 dB      4:16 07-China Boy
DR13      -0.71 dB   -16.61 dB      2:22 08-Sweet Sue
DR14      -2.49 dB   -19.91 dB      2:44 09-Moonglow
DR13      -0.98 dB   -17.66 dB      3:17 10-Exactly Like You
DR14      -2.10 dB   -19.65 dB      3:36 11-Sweet Loraine
DR13      -1.36 dB   -17.26 dB      3:29 12-Whispering
--------------------------------------------------------------------------------

Number of tracks:  12
Official DR value: DR13

Samplerate:        96000 Hz
Channels:          2
Bits per sample:   24
Bitrate:           2764 kbps
Codec:             FLAC
================================================================================
Any questions - support@pro-jazz.com. Есть вопросы - support@pro-jazz.com
19:14
226
Нет комментариев. Ваш будет первым!