Вы используете незарегистрированную версию компонента "Вкладки"!

Поиск

2013 Mor Karbasi - La Tsadika (The Ballad For Sol) {Mor & Co Music, Alama} [24-44,1]

2013 Mor Karbasi - La Tsadika (The Ballad For Sol) {Mor & Co Music, Alama} [24-44,1]
Битрейт аудио:
lossless
Доп. инфо:

Формат записи/Источник записи: [TR24][OF]
Наличие водяных знаков: Нет
Год издания/переиздания диска: 2013
Издатель (лейбл): Mor & Co Music / Alama Records
Продолжительность: 00:46:21
Источник (релизер): qobuz

Контейнер: FLAC (*.flac)
Тип рипа: tracks
Разрядность: 24/44,1
Формат: PCM
Количество каналов: 2.0
Доп. информация: http://www.morkarbasi.com/

Лог проверки качества
foobar2000 1.1.15 / Dynamic Range Meter 1.1.1
log date: 2020-05-25 10:42:13

--------------------------------------------------------------------------------
Analyzed: Mor Karbasi / La Tsadika
--------------------------------------------------------------------------------

DR         Peak         RMS     Duration Track
--------------------------------------------------------------------------------
DR9       -0.20 dB   -11.58 dB      4:35 01-Fuerame A Bañar A Orillas Del Rio
DR9       -0.18 dB   -11.65 dB      3:24 02-Ladrona De Granadas
DR8       -0.10 dB   -11.36 dB      1:58 03-Viva Ordueña
DR10      -0.38 dB   -14.51 dB      3:16 04-Cuando Yo Enfermí De Amor
DR10      -0.14 dB   -13.66 dB      3:48 05-La Gallarda
DR9       -0.14 dB   -11.14 dB      3:05 06-La Blanca Paloma
DR10      -0.13 dB   -11.83 dB      2:38 07-Aún Ke Le Dí La Mano
DR9       -0.30 dB   -12.81 dB      4:48 08-Sol La Tsadika
DR10      -0.17 dB   -12.88 dB      2:54 09-Molinero
DR9       -0.16 dB   -11.18 dB      4:00 10-Mi Niña Me Trajo La Mar
DR8       -1.14 dB   -13.04 dB      3:24 11-Yo Me Levantara
DR10      -0.38 dB   -13.42 dB      3:39 12-Ay Si Te Fueres A Bañar Novia
DR11      -0.89 dB   -16.76 dB      4:51 13-Merecia Ser Casada (Bonus Track)
--------------------------------------------------------------------------------

Number of tracks:  13
Official DR value: DR10

Samplerate:        44100 Hz
Channels:          2
Bits per sample:   24
Bitrate:           1339 kbps
Codec:             FLAC
================================================================================
Any questions - support@pro-jazz.com. Есть вопросы - support@pro-jazz.com
08:02
262
Нет комментариев. Ваш будет первым!