Поиск

1958 Art Blakey - Holiday For Skins (2006) {RevOla} [24-96]

1958 Art Blakey - Holiday For Skins (2006) {RevOla} [24-96]
Стили:
Дата записи диска:
9 ноября 1958
Издатель (лейбл):
Носитель:
WEB
Формат:
PCM
Тип рипа:
tracks
Контейнер:
FLAC (*.flac)
Количество каналов:
2.0
Разрядность/ЧД:
24/96
Битрейт аудио:
lossless
Время звучания:
01:07:03
Наличие сканов:
только обложка

Треклист:

01 - The Feast (08:54)
02 - Aghano (06:05)
03 - Lamento Africano (08:23)
04 - Mirage (10:28)
05 - O'Tinde (06:15)
06 - Swingin' Kilts (08:51)
07 - Dinga (08:58)
08 - Reflection (09:06)

Состав:
  • Ray Barretto     Congas
  • Art Blakey     Chant, Composer, Drums
  • Ray Bryant     Composer, Piano
  • Donald Byrd     Trumpet
  • Austin Cromer     Chant
  • Michael Cuscuna     Liner Notes, Reissue Producer
  • Andy Delannoy     Cencerro, Maracas
  • Joe Goldberg     Original Liner Notes
  • Víctor González     Bongos
  • Philly Joe Jones     Chant, Drums, Timpani
  • Alfred Lion     Producer
  • Wendell Marshall     Bass
  • Julio Martinez     Congas
  • Sabu Martinez     Bongos, Chant, Congas
  • Ron McMaster     Mastering
  • Hal Rasheed     Chant
  • Art Taylor     Drums
  • Rudy Van Gelder     Engineer
Лог проверки качества
foobar2000 1.4.2 / Dynamic Range Meter 1.1.1
log date: 2021-08-16 22:32:55
--------------------------------------------------------------------------------
Analyzed: Art Blakey / Holiday For Skins
--------------------------------------------------------------------------------
DR         Peak         RMS     Duration Track
--------------------------------------------------------------------------------
DR11      -0.72 dB   -15.47 dB      8:54 01-The Feast
DR12      -1.35 dB   -16.90 dB      6:05 02-Aghano
DR13       0.00 dB   -17.21 dB      8:24 03-Lamento Africano
DR12      -0.79 dB   -16.43 dB     10:29 04-Mirage
DR12      -0.41 dB   -16.41 dB      6:16 05-O'Tinde
DR12       0.00 dB   -14.64 dB      8:51 06-Swingin' Kilts
DR11      -0.22 dB   -14.19 dB      8:59 07-Dinga
DR11       0.00 dB   -14.94 dB      9:07 08-Reflection
--------------------------------------------------------------------------------
Number of tracks:  8
Official DR value: DR12
Samplerate:        96000 Hz
Channels:          2
Bits per sample:   24
Bitrate:           2719 kbps
Codec:             FLAC
================================================================================
По всем вопросам пишите личное сообщение пользователю M0p94ok.
18:25
198
Нет комментариев. Ваш будет первым!