Поиск

1967 Les McCann Trio - Live at the Village Vanguard (2017) {2xHD} [24-192]

1967 Les McCann Trio - Live at the Village Vanguard (2017) {2xHD} [24-192]
Стили:
Дата записи диска:
16 июля 1967
Место записи:
Village Vanguard, Seventh Avenue South, Greenwich Village, New York City, NY, USA
Дата издания диска:
17 ноября 2017
Издатель (лейбл):
Носитель:
WEB
Формат:
PCM
Тип рипа:
tracks
Контейнер:
FLAC (*.flac)
Количество каналов:
2.0
Разрядность/ЧД:
24/192
Битрейт аудио:
lossless
Время звучания:
00:41:55
Наличие сканов:
буклет pdf

01 - I Can Dig It 08:30
02 - On Green Dolphin Street 06:58
03 - Blues 5 04:58
04 - Sunny 08:08
05 - I Am in Love 06:06
06 - Love for Sale 07:15

Состав:
  •     Bass – Leroy Vinnegar
  •     Drums – Frank Severino
  •     Engineer [Recording] – George Klabin
  •     Mastered By [2xHD] – René Laflamme
  •     Piano – Les McCann
Лог проверки качества
foobar2000 1.4.3 / Dynamic Range Meter 1.1.1
log date: 2021-08-16 18:20:35
--------------------------------------------------------------------------------
Analyzed: Les McCann, Frank Severino, Leroy Vinnegar / Les McCann: Live at the Village Vanguard
--------------------------------------------------------------------------------
DR         Peak         RMS     Duration Track
--------------------------------------------------------------------------------
DR14      -3.50 dB   -20.80 dB      8:30 01-I Can Dig It
DR12      -3.93 dB   -19.63 dB      6:59 02-On Green Dolphin Street
DR13      -4.11 dB   -20.71 dB      4:59 03-Blues 5
DR15      -3.08 dB   -23.36 dB      8:09 04-Sunny
DR13      -0.75 dB   -17.98 dB      6:07 05-I Am in Love
DR14      -2.87 dB   -21.32 dB      7:16 06-Love for Sale
--------------------------------------------------------------------------------
Number of tracks:  6
Official DR value: DR13
Samplerate:        192000 Hz
Channels:          2
Bits per sample:   24
Bitrate:           5312 kbps
Codec:             FLAC
================================================================================
Приватный:
Нет (DHT включён)
Размер:
1.59 Гб (1,708,672,666 байт) » файлов: 13
Участники:
0 раздают, 0 качают (0 участников всего)
Внешние участники:
2 раздают, 1 качают (3 участников всего) [ Обновить ]
23:16
648
Нет комментариев. Ваш будет первым!