Вы используете незарегистрированную версию компонента "Вкладки"!

Поиск

1958-1959 Fred Katz - Fred Katz And His Music (2020) {RevOla} [24-44,1]

1958-1959 Fred Katz - Fred Katz And His Music (2020) {RevOla} [24-44,1]
Издатель (лейбл):
Битрейт аудио:
lossless
Доп. инфо:

• Формат записи | Источник записи: [TR24][OF]
• Наличие водяных знаков: Нет
• Год издания релиза: 2020
• Лейбл: RevOla
• Продолжительность: 01:54:54
• Источник: internet
• WEB релиз: ссылка
• Контейнер: FLAC (*.flac)
• Тип рипа: tracks
• Разрядность: 24/44,1
• Формат: WAV (flac.ape.wv)
• Количество каналов: 2.0
• Наличие сканов: front

Лог проверки качества
foobar2000 1.4.2 / Dynamic Range Meter 1.1.1
log date: 2020-02-23 16:01:29

--------------------------------------------------------------------------------
Analyzed: Fred Katz / Fred Katz And His Music
--------------------------------------------------------------------------------

DR         Peak         RMS     Duration Track
--------------------------------------------------------------------------------
DR7        0.00 dB    -9.37 dB      2:46 01-Country Gardens (Remastered)
DR8        0.00 dB   -10.71 dB      3:45 02-Satori (Remastered)
DR7        0.00 dB   -10.00 dB      2:38 03-Andante (Remastered)
DR7        0.00 dB    -9.88 dB      3:22 04-Circus (Remastered)
DR8        0.00 dB   -11.08 dB      2:34 05-Wayfaring Stranger (Remastered)
DR7        0.00 dB    -8.97 dB      3:53 06-Time After Time (Remastered)
DR7        0.00 dB    -9.06 dB      2:07 07-The Vidiot (Remastered)
DR8        0.00 dB   -10.93 dB      3:51 08-Lament Of The Oracles (Remastered)
DR7        0.00 dB    -9.97 dB      3:11 09-I’m Glad There Is You (Remastered)
DR8        0.00 dB   -10.95 dB      3:35 10-The Toy That Never Was (Remastered)
DR8        0.00 dB   -11.33 dB      2:53 11-Intermezzo (Remastered)
DR8        0.00 dB   -10.78 dB      2:52 12-Come with Me (Remastered)
DR10       0.00 dB   -11.67 dB      2:57 13-Symphony (Remastered)
DR9        0.00 dB   -11.46 dB      4:24 14-While the Music Plays On (Remastered)
DR10       0.00 dB   -11.45 dB      2:41 15-Isn’t It Romantic? (Remastered)
DR6        0.00 dB    -9.67 dB      4:41 16-Delia (Remastered)
DR6        0.00 dB    -9.12 dB      3:30 17-Dexterity (Remastered)
DR7        0.00 dB   -10.07 dB      2:48 18-Like Someone In Love (Remastered)
DR6        0.00 dB    -8.88 dB      3:25 19-Krelch (Remastered)
DR6        0.00 dB   -11.14 dB      3:22 20-Mountain Air (Remastered)
DR10       0.00 dB   -12.29 dB      4:47 21-Perdido (Remastered)
DR7        0.00 dB   -10.40 dB      5:31 22-I’m Gettin’ Sentimental Over You (Remastered)
DR7        0.00 dB    -8.92 dB      6:42 23-Feeling The Blues (Remastered)
DR6        0.00 dB    -9.53 dB      2:32 24-Elegy (Remastered)
DR6        0.00 dB    -8.56 dB      3:24 25-Imagination (Remastered)
DR6        0.00 dB    -8.60 dB      4:25 26-Vintage 57 (Remastered)
DR6        0.00 dB    -9.21 dB      4:53 27-Old Folks (Remastered)
DR6        0.00 dB    -8.82 dB      4:40 28-Sometimes I’m Happy (Remastered)
DR7        0.00 dB    -9.96 dB      3:59 29-Ruby My Dear (Remastered)
DR6        0.00 dB    -9.28 dB      4:09 30-Dixie, Why Not ? (Remastered)
DR6        0.00 dB    -8.51 dB      4:33 31-The Blow Is To Know (Remastered)
--------------------------------------------------------------------------------

Number of tracks:  31
Official DR value: DR7

Samplerate:        44100 Hz
Channels:          2
Bits per sample:   24
Bitrate:           1413 kbps
Codec:             FLAC
================================================================================
Any questions - support@pro-jazz.com. Есть вопросы - support@pro-jazz.com
13:59
447
Нет комментариев. Ваш будет первым!