Вы используете незарегистрированную версию компонента "Вкладки"!

Поиск

2020 Idle Hands - Solid Moments {Posi-Tone} [24-88,2]

2020 Idle Hands - Solid Moments {Posi-Tone} [24-88,2]
Стили:
Издатель (лейбл):
Битрейт аудио:
lossless
Доп. инфо:

• Формат записи | Источник записи: [TR24][OF]
• Наличие водяных знаков: Нет
• Год издания релиза: 2020
• Лейбл: Posi-Tone Records
• Продолжительность: 01:00:43
• Источник: internet
• WEB релиз: ссылка
• Контейнер: FLAC (*.flac)
• Тип рипа: tracks
• Разрядность: 24/88,2
• Формат: WAV (flac.ape.wv)
• Количество каналов: 2.0
• Наличие сканов: front

Лог проверки качества
foobar2000 1.4.2 / Dynamic Range Meter 1.1.1
log date: 2020-02-23 16:02:47

--------------------------------------------------------------------------------
Analyzed: Idle Hands / Solid Moments
--------------------------------------------------------------------------------

DR         Peak         RMS     Duration Track
--------------------------------------------------------------------------------
DR12      -0.98 dB   -14.36 dB      4:32 01-Barreling Through
DR12      -0.98 dB   -14.59 dB      4:20 02-Silver Bullet
DR11      -0.98 dB   -13.69 dB      4:34 03-Over The Fence
DR12      -0.98 dB   -14.28 dB      5:25 04-Snow Child
DR11      -0.98 dB   -13.69 dB      6:12 05-Event Horizon
DR11      -0.98 dB   -13.99 dB      6:06 06-Maxwell Street
DR11      -0.98 dB   -14.54 dB      4:16 07-You And I
DR11      -0.98 dB   -14.35 dB      6:30 08-The Move
DR11      -0.98 dB   -15.74 dB      4:23 09-Ashes
DR11      -0.98 dB   -14.31 dB      6:10 10-Dock's House
DR11      -0.98 dB   -14.81 dB      4:22 11-Motion
DR11      -0.98 dB   -14.72 dB      3:53 12-Theme For Kareem
--------------------------------------------------------------------------------

Number of tracks:  12
Official DR value: DR11

Samplerate:        88200 Hz
Channels:          2
Bits per sample:   24
Bitrate:           2789 kbps
Codec:             FLAC
================================================================================
Any questions - support@pro-jazz.com. Есть вопросы - support@pro-jazz.com
16:04
233
Нет комментариев. Ваш будет первым!