Вы используете незарегистрированную версию компонента "Вкладки"!

Поиск

2020 Håvard Stubø Quartet - Kautokeino Undercover {Bolage} [24-96]

2020 Håvard Stubø Quartet - Kautokeino Undercover {Bolage} [24-96]
Стили:
Битрейт аудио:
lossless
Доп. инфо:

• Формат записи | Источник записи: [TR24][OF]
• Наличие водяных знаков: Нет
• Год издания релиза: 2020
• Лейбл: Bolage
• Продолжительность: 00:44:51
• Источник: internet
• WEB релиз: ссылка
• Контейнер: FLAC (*.flac)
• Тип рипа: tracks
• Разрядность: 24/96
• Формат: PCM
• Количество каналов: 2.0
• Наличие сканов: front

Лог проверки качества
foobar2000 1.4.2 / Dynamic Range Meter 1.1.1
log date: 2020-02-23 16:02:03

--------------------------------------------------------------------------------
Analyzed: Håvard Stubø Quartet / Kautokeino Undercover
--------------------------------------------------------------------------------

DR         Peak         RMS     Duration Track
--------------------------------------------------------------------------------
DR12      -1.00 dB   -14.23 dB      6:12 01-Kautokeino Undercover
DR13      -1.00 dB   -16.10 dB      5:46 02-1 + 1 = 1
DR12      -1.18 dB   -16.69 dB      6:29 03-Blodspredikan
DR12      -1.00 dB   -15.75 dB      4:41 04-Golden Power
DR13      -1.00 dB   -17.40 dB      6:51 05-Kapten Broo
DR12      -1.32 dB   -17.78 dB      2:49 06-Sneen som falt i fjor
DR13      -1.01 dB   -16.20 dB      6:01 07-Láhpoluobbal
DR14      -1.01 dB   -17.33 dB      6:04 08-Laura
--------------------------------------------------------------------------------

Number of tracks:  8
Official DR value: DR13

Samplerate:        96000 Hz
Channels:          2
Bits per sample:   24
Bitrate:           2717 kbps
Codec:             FLAC
================================================================================
Any questions - support@pro-jazz.com. Есть вопросы - support@pro-jazz.com
18:57
266
Нет комментариев. Ваш будет первым!