Вы используете незарегистрированную версию компонента "Вкладки"!

Поиск

2020 FPB - FPB {Vertigo} [24-44,1]

2020 FPB - FPB {Vertigo} [24-44,1]
Стили:
Битрейт аудио:
lossless
Доп. инфо:

• Формат записи | Источник записи: [TR24][OF]
• Наличие водяных знаков: Нет
• Год издания релиза: 2020
• Лейбл: Vertigo
• Продолжительность: 00:29:35
• Источник: internet
• WEB релиз: ссылка
• Контейнер: FLAC (*.flac)
• Тип рипа: tracks
• Разрядность: 24/44,1
• Формат: WAV (flac.ape.wv)
• Количество каналов: 2.0
• Наличие сканов: front

Лог проверки качества
foobar2000 1.4.2 / Dynamic Range Meter 1.1.1
log date: 2020-02-24 22:20:10

--------------------------------------------------------------------------------
Analyzed: FPB / FPB
--------------------------------------------------------------------------------

DR         Peak         RMS     Duration Track
--------------------------------------------------------------------------------
DR9       -0.59 dB   -13.24 dB      9:07 01-Consignación
DR10      -0.09 dB   -12.49 dB      8:35 02-883
DR10      -0.34 dB   -14.32 dB      6:07 03-Señor Gato
DR10       0.00 dB   -13.88 dB      5:47 04-Señor Gato (take 2)
--------------------------------------------------------------------------------

Number of tracks:  4
Official DR value: DR10

Samplerate:        44100 Hz
Channels:          2
Bits per sample:   24
Bitrate:           1458 kbps
Codec:             FLAC
================================================================================
Any questions - support@pro-jazz.com. Есть вопросы - support@pro-jazz.com
23:13
258
Нет комментариев. Ваш будет первым!