Поиск

1957 Illinois Jacquet - Swing's The Thing (2016) {Verve, Analogue Productions} [DSD64]

1957 Illinois Jacquet - Swing's The Thing (2016) {Verve, Analogue Productions} [DSD64]
Стили:
Дата записи диска:
16 октября 1956 - 11 августа 1959
Издатель (лейбл):
Битрейт аудио:
lossless
Доп. инфо:

Формат записи/Источник записи: [DSD][OF]
Наличие водяных знаков: Нет
Год издания/переиздания диска: 1956/2016
Издатель (лейбл): Verve / Analogue Productions
Продолжительность: 00:34:20
Наличие сканов в содержимом раздачи: Только обложка альбома

Контейнер: DFF (*.dff)
Тип рипа: tracks
Разрядность: 64(2,8 MHz/1 Bit)
Формат: DSD
Количество каналов: 2.0 MONO

Источник (релизер): acousticsounds.com

Лог проверки качества
foobar2000 1.6.4 / Dynamic Range Meter 1.1.1
log date: 2021-02-22 11:29:26

--------------------------------------------------------------------------------
Analyzed: Illinois Jacquet / Swing's The Thing
--------------------------------------------------------------------------------

DR         Peak         RMS     Duration Track
--------------------------------------------------------------------------------
DR14      -6.06 dB   -25.08 dB      6:17 01-Las Vegas Blues
DR13      -8.52 dB   -25.92 dB      4:32 02-Harlem Nocturne
DR14      -8.85 dB   -25.75 dB      6:43 03-Can't We Be Friends
DR14      -6.35 dB   -22.76 dB      5:07 04-Achtung
DR16      -6.88 dB   -24.99 dB      5:56 05-Have You Met Miss Jones
DR14      -7.40 dB   -23.92 dB      5:45 06-Lullaby of the Leaves
--------------------------------------------------------------------------------

Number of tracks:  6
Official DR value: DR14

Samplerate:        2822400 Hz / PCM Samplerate: 352800 Hz
Channels:          2
Bits per sample:   1
Bitrate:           5645 kbps
Codec:             DSD64
================================================================================
No seeders - write personal message to M0p94ok. Any questions - support@pro-jazz.com.
Нет сидеров - пишите в личку M0p94ok. Есть вопросы - support@pro-jazz.com
19:17
88
Нет комментариев. Ваш будет первым!