Поиск

2015 VA - Master Superior Audiophile {Master Music} [DST64 ISO]

2015 VA - Master Superior Audiophile {Master Music} [DST64 ISO]
Битрейт аудио:
lossless
Треклист:

01. Inger Marie Gundersen: Make This Moment
02. Etta Cameron & Nikolaj Hess: Summer Time
03. Sinne Eeg: Somewhere
04. Lisa Dillan: Any Day Now
05. Le Bang Bang & Kalberer: The First Day Of Your Life
06. Malene Mortensen: The Rest Of Mind
07. Aaron Marcellus & Kirk Whalum: Every Day
08. Quadro Nuevo: Tango Del Mare
09. Kari Bremnes: Sangen Om Fyret Ved Tornehamn
10. Dee Daniels: I Who Have Nothing
11. I Solisti Italiani / Handle: Overture (Allegro) from Water Music
12. Lisa Wahlandt & Sven Faller: Waiting On An Angel
13. Nicki Parrott: I'm Glad There Is You
14. Matthias ForemnyЈ¬conductor: Fantasy On Motifs from the Opera La Traviata Op.146

Доп. инфо:

Формат записи/Источник записи: [SACD-R][OF]
Наличие водяных знаков: Нет
Издание: Sampler
Год издания диска: 2015
Издатель (лейбл): Master Music - [MASA 51582]
Продолжительность: 01:08:22
Наличие сканов в содержимом раздачи: Да (сканы)

Контейнер: ISO (*.iso)
Тип рипа: image
Разрядность: 64(2,8 MHz/1 Bit)
Формат: DST64
Количество каналов: 2.0

Источник (релизер): HRAudio.net

Лог проверки качества
foobar2000 1.6.4 / Dynamic Range Meter 1.1.1
log date: 2021-02-22 15:34:07

--------------------------------------------------------------------------------
Analyzed: ? / ?
--------------------------------------------------------------------------------

DR         Peak         RMS     Duration Track
--------------------------------------------------------------------------------
DR10      -8.00 dB   -21.58 dB      3:14 01-Make this Moment
DR9       -7.48 dB   -19.93 dB      4:33 02-Summer time
DR8       -8.12 dB   -20.15 dB      4:39 03-Somewhere
DR13      -8.73 dB   -25.36 dB      5:11 04-Any day now
DR11      -8.51 dB   -23.21 dB      4:30 05-First day of your life
DR11      -7.91 dB   -20.73 dB      4:36 06-The rest of mind
DR9       -8.19 dB   -19.46 dB      3:20 07-Every Day
DR9       -8.20 dB   -22.49 dB      4:07 08-Tango Del Mare
DR10      -7.44 dB   -21.74 dB      4:43 09-Sangen Om Fyret Ved Torejhamn
DR11      -8.60 dB   -23.32 dB      5:31 10-I who have nothing
DR13      -8.66 dB   -24.69 dB      3:20 11-Handle: Water music
DR8       -7.98 dB   -19.14 dB      4:25 12-Waiting on an angel
DR11      -8.03 dB   -21.74 dB      4:59 13-I'm glad there is you
DR15      -6.15 dB   -27.90 dB     11:16 14-Fantasy from La Traviata Op.146
--------------------------------------------------------------------------------

Number of tracks:  14
Official DR value: DR11

Samplerate:        2822400 Hz / PCM Samplerate: 352800 Hz
Channels:          2
Bits per sample:   1
Bitrate:           5645 kbps
Codec:             DST64
================================================================================
Приватный:
Нет (DHT включён)
Размер:
1.07 Гб (1,145,408,856 байт) » файлов: 11
Участники:
8 раздают, 0 качают (8 участников всего)
Внешние участники:
19 раздают, 6 качают (25 участников всего) [ Обновить ]
No seeders - write personal message to M0p94ok. Нет сидеров - пишите в личку M0p94ok.
11:23
59
Нет комментариев. Ваш будет первым!