Поиск

2017 VA - Master Superior Audiophile {Master Music} [DST64 ISO]

2017 VA - Master Superior Audiophile {Master Music} [DST64 ISO]
Битрейт аудио:
lossless
Доп. инфо:

Формат записи/Источник записи: [SACD-R][OF]
Наличие водяных знаков: Нет
Издание: Sampler
Год издания диска: 2017
Издатель (лейбл): Master Music - [MASA 51782]
Продолжительность: 01:01:25
Наличие сканов в содержимом раздачи: Да (сканы)

Контейнер: ISO (*.iso)
Тип рипа: image
Разрядность: 64(2,8 MHz/1 Bit)
Формат: DST64
Количество каналов: 2.0

Источник (релизер): HRAudio.net

Лог проверки качества
foobar2000 1.6.4 / Dynamic Range Meter 1.1.1
log date: 2021-02-22 16:27:38

--------------------------------------------------------------------------------
Analyzed: ? / ?
--------------------------------------------------------------------------------

DR         Peak         RMS     Duration Track
--------------------------------------------------------------------------------
DR9       -6.32 dB   -17.36 dB      3:15 01-Master Superior Audiophile 2017
DR12      -6.73 dB   -21.77 dB      3:22 02-Master Superior Audiophile 2017
DR9       -6.78 dB   -18.36 dB      3:14 03-Master Superior Audiophile 2017
DR12      -5.03 dB   -21.31 dB      4:57 04-Master Superior Audiophile 2017
DR7       -7.68 dB   -15.29 dB      3:57 05-Master Superior Audiophile 2017
DR10      -5.35 dB   -16.69 dB      3:27 06-Master Superior Audiophile 2017
DR9       -6.32 dB   -19.11 dB      4:39 07-Master Superior Audiophile 2017
DR12      -6.06 dB   -22.51 dB      3:18 08-Master Superior Audiophile 2017
DR12      -6.03 dB   -21.40 dB      4:58 09-Master Superior Audiophile 2017
DR8       -6.14 dB   -16.32 dB      4:04 10-Master Superior Audiophile 2017
DR11      -4.33 dB   -19.50 dB      3:00 11-Master Superior Audiophile 2017
DR12      -6.14 dB   -22.46 dB      6:27 12-Master Superior Audiophile 2017
DR13      -6.01 dB   -24.99 dB      5:15 13-Master Superior Audiophile 2017
DR14      -5.91 dB   -24.22 dB      7:35 14-Master Superior Audiophile 2017
--------------------------------------------------------------------------------

Number of tracks:  14
Official DR value: DR11

Samplerate:        2822400 Hz / PCM Samplerate: 352800 Hz
Channels:          2
Bits per sample:   1
Bitrate:           5645 kbps
Codec:             DST64
================================================================================
No seeders - write personal message to M0p94ok. Any questions - support@pro-jazz.com.
Нет сидеров - пишите в личку M0p94ok. Есть вопросы - support@pro-jazz.com
14:05
133
Нет комментариев. Ваш будет первым!