Поиск

2019 Ben Monder - Day After Day {Sunnyside} [24-96]

2019 Ben Monder - Day After Day {Sunnyside} [24-96]
Дата записи диска:
17 апреля 2018
Место записи:
Brooklyn Recording, Brooklyn, NYC, New York, USA
Дата издания диска:
12 апреля 2019
Издатель (лейбл):
Номер по каталогу:
SSC 1549
Носитель:
WEB
Формат:
PCM
Тип рипа:
tracks
Контейнер:
FLAC (*.flac)
Количество каналов:
2.0
Разрядность/ЧД:
24/96
Битрейт аудио:
lossless
Время звучания:
01:36:03
Наличие сканов:
только обложка
Страна-производитель диска (релиза):
USA
Релизёр (источник):
M0p94ok
Лог проверки качества
foobar2000 1.3.16 / Dynamic Range Meter 1.1.1
log date: 2019-06-05 18:04:16

--------------------------------------------------------------------------------
Analyzed: Ben Monder / Day After Day
--------------------------------------------------------------------------------

DR         Peak         RMS     Duration Track
--------------------------------------------------------------------------------
DR10      -0.32 dB   -13.04 dB      6:30 01-Dreamsville
DR8       -0.32 dB   -11.22 dB      8:21 02-Emily
DR11      -1.68 dB   -16.63 dB      3:37 03-O Sacrum Convivium
DR10      -0.32 dB   -14.17 dB      3:53 04-My One and Only Love
DR10      -0.26 dB   -12.77 dB      7:38 05-The Windows of The World
DR10      -0.32 dB   -13.70 dB      6:43 06-Never Let Me Go
DR9       -0.32 dB   -12.61 dB      8:27 07-The Midnight Sun Will Never Set
DR10      -0.30 dB   -11.34 dB      7:24 08-Galveston
DR13      -0.32 dB   -14.90 dB      6:15 09-Dust
DR10      -0.30 dB   -14.58 dB      6:41 10-Long, Long, Long
DR10      -0.30 dB   -12.40 dB      7:09 11-The Guitar Man
DR10      -0.30 dB   -11.12 dB      6:00 12-Goldfinger
DR9       -0.31 dB   -11.06 dB      6:13 13-Only Yesterday
DR12      -0.32 dB   -14.42 dB      4:53 14-Just Like a Woman
DR10      -0.32 dB   -13.12 dB      6:18 15-Day After Day
--------------------------------------------------------------------------------

Number of tracks:  15
Official DR value: DR10

Samplerate:        96000 Hz
Channels:          2
Bits per sample:   24
Bitrate:           2443 kbps
Codec:             FLAC
================================================================================
No seeders - write personal message to M0p94ok. Any questions - support@pro-jazz.com.
Нет сидеров - пишите в личку M0p94ok. Есть вопросы - support@pro-jazz.com
17:11
99
Нет комментариев. Ваш будет первым!