Поиск

1959 The Cecil Taylor Quartet - Looking Ahead! (2019) {RevOla} [24-44.1]

1959 The Cecil Taylor Quartet - Looking Ahead! (2019) {RevOla} [24-44.1]
Дата записи диска:
9 июня 1958
Место записи:
Nola's Penthouse Studios, New York, NY
Дата издания диска:
8 января 2019
Издатель (лейбл):
Носитель:
WEB
Формат:
PCM
Тип рипа:
tracks
Контейнер:
FLAC (*.flac)
Количество каналов:
2.0
Разрядность/ЧД:
24/44,1
Битрейт аудио:
lossless
Время звучания:
00:42:14
Наличие сканов:
только обложка
Страна-производитель диска (релиза):
USA
Релизёр (источник):
M0p94ok
Доп. инфо:

Одна из самых ранних записей Сесила Тейлора, Looking Ahead! делает именно это - заглядывает вперёд, впрочем, отдавая некоторую дань сохранению традиций. Это удивительный документ о таланте, который изрядно натягивает бразды правления, о метеоре, который вот-вот ворвётся на джазовую сцену и навсегда изменит её. С Earl Griffith на вибрафоне, Тейлор использует инструментальные приёмы, к которым он иногда будет обращаться намного позже, те, которые придают дополнительный ударный слой этому сеансу записи, подчеркивая новые ритмические атаки, с которыми он экспериментировал. Гриффит звучит так, как будто он, возможно, был на один или два концептуальных шага позади остальных трех, но в контексте того времени это, возможно, помогло сделать музыку более приемлемой для современных вкусов. Но семена явно посеяны, и можно услышать прямые намеки на грядущую музыку Тейлора, по крайней мере, вплоть до 1962 года (трио Нефертити с Санни Мюррей). Такие пьесы, как «Luyah! The Glorious Step» и «Of What», настолько фрагментированы (в традиционном смысле) и настолько живы, что можно понять наблюдение Уитни Бейлетт за толпой на концерте Тейлора, ерзающей «так, будто земля под ней внезапно стала невыносимо жарко". Вклад басиста Бьюэлла Нейдлингера и барабанщика Денниса Чарльза нельзя недооценивать; они дышат с Тейлором как одно целое и кажутся полностью синхронизированными с его идеями. Когда пианист начинает своё соло в "Excursion on a Wobbly Rail", это как будто он встречает традицию лицом к лицу, пожимает руку и затем устремляется в будущее. Заглядывая вперед! является важной записью зарождения одного из выдающихся гениев современной музыки и принадлежит к коллекции любого поклонника джаза.

https://www.allmusic.com/album/release/looking-ahead-mr0005333636

Лог проверки качества
foobar2000 1.3.16 / Dynamic Range Meter 1.1.1
log date: 2019-05-12 15:24:21

--------------------------------------------------------------------------------
Analyzed: Cecil Taylor / Loooking Ahead
--------------------------------------------------------------------------------

DR         Peak         RMS     Duration Track
--------------------------------------------------------------------------------
DR14      -3.07 dB   -25.27 dB      6:29 01-Luyah! The Glorious Step
DR16      -6.66 dB   -29.77 dB      5:15 02-African Violets
DR16      -3.14 dB   -25.79 dB      8:21 03-Of What
DR15      -2.40 dB   -25.19 dB      5:25 04-Wallering
DR16      -6.08 dB   -28.04 dB      7:44 05-Toll
DR15      -4.18 dB   -25.61 dB      9:02 06-Excursion On A Wobbly Rail
--------------------------------------------------------------------------------

Number of tracks:  6
Official DR value: DR15

Samplerate:        44100 Hz
Channels:          2
Bits per sample:   24
Bitrate:           1371 kbps
Codec:             FLAC
================================================================================
No seeders - write personal message to M0p94ok. Any questions - support@pro-jazz.com.
Нет сидеров - пишите в личку M0p94ok. Есть вопросы - support@pro-jazz.com
00:16
110
Нет комментариев. Ваш будет первым!