Поиск

2018 VA - Master Superior Audiophile {Master Music} [DST64 ISO]

2018 VA - Master Superior Audiophile {Master Music} [DST64 ISO]
Битрейт аудио:
lossless
Треклист:

01. Chance Of A Lifetime - Hanne Boel
02. There Is No Night - Mary Black
03. Ved Gjaetle-Bekken - Lynni Treekrem
04. Walk On By - Nicki Parrott
05. Miami Beach Rumba - John Di Martino
06. Sisters - Halie Loren
07. Taking It Slow - Eeg/Fonnesbaek
08. Here I Come Again - Mighty Sam McClain
09. Why - Paolo Presu & Omar Sosa
10. Rain - Sinne Eeg
11. En Rod For Alt Det Sote - Kari Bremnes
12. Fool In The Hill - Stefanie Schlesinger
13. First OF May - Simone Kopmajer
14. Yungul – W.Greco / L. Shirvani

Доп. инфо:

Формат записи/Источник записи: [SACD-R][OF]
Наличие водяных знаков: Нет
Издание: Sampler
Год издания диска: 2018
Издатель (лейбл): Master Music - [MASA 51852]
Продолжительность: 01:08:46
Наличие сканов в содержимом раздачи: Только обложка альбома

Контейнер: ISO (*.iso)
Тип рипа: image
Разрядность: 64(2,8 MHz/1 Bit)
Формат: DST64
Количество каналов: 2.0

Источник: HRAudio.net

Лог проверки качества
foobar2000 1.6.4 / Dynamic Range Meter 1.1.1
log date: 2021-02-22 17:39:58

--------------------------------------------------------------------------------
Analyzed: ? / ?
--------------------------------------------------------------------------------

DR         Peak         RMS     Duration Track
--------------------------------------------------------------------------------
DR11      -6.34 dB   -21.49 dB      4:56 01-Master Superior 2018 SACD
DR11      -6.32 dB   -19.51 dB      5:07 02-Master Superior 2018 SACD
DR10      -6.32 dB   -20.43 dB      3:20 03-Master Superior 2018 SACD
DR12      -6.28 dB   -20.04 dB      3:09 04-Master Superior 2018 SACD
DR11      -6.30 dB   -19.07 dB      5:10 05-Master Superior 2018 SACD
DR11      -6.87 dB   -21.91 dB      5:15 06-Master Superior 2018 SACD
DR11      -6.36 dB   -19.81 dB      4:45 07-Master Superior 2018 SACD
DR12      -6.66 dB   -20.65 dB      4:40 08-Master Superior 2018 SACD
DR12      -6.24 dB   -20.14 dB      5:00 09-Master Superior 2018 SACD
DR11      -6.28 dB   -20.83 dB      5:48 10-Master Superior 2018 SACD
DR13      -6.32 dB   -22.13 dB      5:17 11-Master Superior 2018 SACD
DR11      -5.92 dB   -20.26 dB      5:05 12-Master Superior 2018 SACD
DR12      -6.32 dB   -19.85 dB      4:24 13-Master Superior 2018 SACD
DR11      -6.32 dB   -20.79 dB      6:52 14-Master Superior 2018 SACD
--------------------------------------------------------------------------------

Number of tracks:  14
Official DR value: DR11

Samplerate:        2822400 Hz / PCM Samplerate: 352800 Hz
Channels:          2
Bits per sample:   1
Bitrate:           5645 kbps
Codec:             DST64
================================================================================
Приватный:
Нет (DHT включён)
Размер:
907.40 Мб (951,478,405 байт) » файлов: 3
Участники:
10 раздают, 0 качают (10 участников всего)
Внешние участники:
--- [ Обновить ]
No seeders - write personal message to M0p94ok. Нет сидеров - пишите в личку M0p94ok.
12:38
63
Нет комментариев. Ваш будет первым!