Поиск

2020 Tania Giannouli Trio - In Fading Light {Rattle} [24-48]

2020 Tania Giannouli Trio - In Fading Light {Rattle} [24-48]
Битрейт аудио:
lossless

Треклист:

01. Labyrinth 05:55
02. When Then 04:21
03. Hinemoa's Lament 09:08
04. Night Flight 06:10
05. Fallen 02:13
06. Bela's Dance 03:17
07. Ingravida 05:47
08. Moth 02:38
09. No Corner 06:25
10. Disquiet 07:40
11. Inland Sea 05:07
12. In Fading Light 01:44

Доп. инфо:

Формат записи/Источник записи: [TR24][OF]
Наличие водяных знаков: Нет
Год издания/переиздания диска: 2020
Издатель (лейбл): Rattle Records
Продолжительность: 01:00:25
Наличие сканов в содержимом раздачи: Только обложка альбома
Источник (релизер): highresaudio

Контейнер: FLAC (*.flac)
Тип рипа: tracks
Разрядность: 24/48
Формат: PCM
Количество каналов: 2.0
Доп. информация: https://www.taniagiannouli.eu/

Лог проверки качества
foobar2000 1.3.7 / Dynamic Range Meter 1.1.1
log date: 2020-11-18 07:45:50

--------------------------------------------------------------------------------
Analyzed: Tania Giannouli Trio / In Fading Light
--------------------------------------------------------------------------------

DR         Peak         RMS     Duration Track
--------------------------------------------------------------------------------
DR10      -0.65 dB   -15.28 dB      5:55 01-Labyrinth
DR11      -0.65 dB   -15.75 dB      4:21 02-When Then
DR13      -0.65 dB   -18.63 dB      9:08 03-Hinemoa's Lament
DR11      -0.65 dB   -15.24 dB      6:10 04-Night Flight
DR14      -6.49 dB   -26.47 dB      2:13 05-Fallen
DR9       -0.65 dB   -13.05 dB      3:17 06-Bela's Dance
DR10      -0.65 dB   -13.86 dB      5:47 07-Ingravida
DR13      -3.73 dB   -21.90 dB      2:38 08-Moth
DR12      -0.65 dB   -17.04 dB      6:25 09-No Corner
DR11      -0.65 dB   -16.39 dB      7:40 10-Disquiet
DR14      -0.65 dB   -18.78 dB      5:07 11-Inland Sea
DR19      -4.08 dB   -28.70 dB      1:44 12-In Fading Light
--------------------------------------------------------------------------------

Number of tracks:  12
Official DR value: DR12

Samplerate:        48000 Hz
Channels:          2
Bits per sample:   24
Bitrate:           1237 kbps
Codec:             FLAC
================================================================================
Приватный:
Нет (DHT включён)
Размер:
572.61 Мб (600,426,019 байт) » файлов: 16
Участники:
0 раздают, 0 качают (0 участников всего)
Внешние участники:
9 раздают, 3 качают (12 участников всего) [ Обновить ]
No seeders - write personal message to M0p94ok. Нет сидеров - пишите в личку M0p94ok.
00:37
52
Нет комментариев. Ваш будет первым!